<?xml version="1.0" standalone="no"?>
<!DOCTYPE svg PUBLIC "-//W3C//DTD SVG 1.1//EN" "http://www.w3.org/Graphics/SVG/1.1/DTD/svg11.dtd" >
<svg>
<metadata>
Created by FontForge 20110222 at Sat Aug 16 10:57:53 2014
 By Orthosie Webhosting
Copyright 2007-2013 Hussain K H, Suresh P, Santhosh Thottingal, Rajeesh K Nambiar, Swathanthra Malayalam Computing (http://smc.org.in,https://savannah.nongnu.org/projects/smc)
</metadata>
<defs>
<font id="Meera" horiz-adv-x="2168" >
  <font-face 
    font-family="Meera"
    font-weight="400"
    font-stretch="normal"
    units-per-em="2048"
    panose-1="2 0 6 3 0 0 0 0 0 0"
    ascent="1434"
    descent="-614"
    x-height="920"
    cap-height="1280"
    bbox="-1199 -1081 3815 1445"
    underline-thickness="61"
    underline-position="-942"
    unicode-range="U+0020-25CC"
  />
<missing-glyph horiz-adv-x="692" 
d="M45 1v1118h561v-1118h-561zM102 55h450v1008h-450v-1008z" />
    <glyph glyph-name=".notdef" horiz-adv-x="692" 
d="M45 1v1118h561v-1118h-561zM102 55h450v1008h-450v-1008z" />
    <glyph glyph-name=".null" horiz-adv-x="0" 
 />
    <glyph glyph-name="nonmarkingreturn" horiz-adv-x="682" 
 />
    <glyph glyph-name="space" unicode=" " horiz-adv-x="560" 
 />
    <glyph glyph-name="exclam" unicode="!" horiz-adv-x="607" 
d="M303 -1v165h147v-165h-147zM450 687l-44 -388h-56q-45 384 -45 388l-2 593h147v-593z" />
    <glyph glyph-name="quotedbl" unicode="&#x22;" horiz-adv-x="782" 
d="M663 952l-24 -120h-54l-25 120q-21 101 -21 115v195h147v-195q-5 -28 -23 -115zM427 952l-25 -120h-52l-24 120q-23 101 -25 115v195h150v-195q-5 -28 -24 -115z" />
    <glyph glyph-name="numbersign" unicode="#" horiz-adv-x="942" 
d="M807 781l-61 -331h192v-101h-210l-69 -377h-115l68 377h-246l-70 -377h-113l68 377h-183v101h204l58 331h-196v101h216l63 349h117l-68 -349h249l63 349h117l-67 -349h172v-101h-189zM446 781l-62 -331h249l59 331h-246z" />
    <glyph glyph-name="dollar" unicode="$" horiz-adv-x="955" 
d="M566 -31v-181h-83v181q-190 13 -284.5 107t-94.5 284h121q12 -138 62.5 -205t195.5 -85v506q-182 54 -269 123t-87 222q0 302 356 346v95h83v-95q161 -13 254 -97.5t95 -232.5h-120q-4 96 -63 160.5t-166 66.5v-465q234 -63 311.5 -130.5t77.5 -220.5q0 -351 -389 -379z
M483 1164q-234 -32 -234 -227q0 -169 234 -230v457zM566 567v-497q263 30 264 256q0 184 -264 241z" />
    <glyph glyph-name="percent" unicode="%" horiz-adv-x="1485" 
d="M1397.5 56.5q-85.5 -86.5 -207.5 -86.5t-206 86t-85 208q0 122 85.5 208t208.5 86t206 -85t84 -210q0 -120 -85.5 -206.5zM505 -30h-92l692 1281h91zM623.5 705.5q-85.5 -85.5 -207.5 -85.5t-206.5 84.5t-84.5 208.5t84.5 208.5t208.5 84.5q122 0 206.5 -85.5
t84.5 -207.5t-85.5 -207.5zM1192 458q-82 0 -137 -55.5t-55 -136.5t55 -136.5t135 -55.5t137 55.5t57 135.5t-56 136.5t-136 56.5zM418 1107q-82 0 -137 -57t-55 -137t55 -135t137 -55q80 0 135 55t55 135t-55 137t-135 57z" />
    <glyph glyph-name="ampersand" unicode="&#x26;" horiz-adv-x="1107" 
d="M947 2l-115 145q-192 -185 -366 -185t-272 92q-98 94 -98 238t73 223t225 167q-152 190 -152 302t87 187.5t210 75.5t201.5 -73.5t78.5 -186.5t-63.5 -181t-189.5 -136l258 -314q62 110 64 220h123q-5 -159 -108 -316l209 -258h-165zM534 1144q-166 0 -166 -164
q0 -78 85 -177l49 -56q199 125 199 235q0 72 -48 117t-119 45zM458 609q-233 -148 -233 -291q0 -100 72.5 -170.5t175.5 -70.5q144 0 285 159z" />
    <glyph glyph-name="quotesingle" unicode="'" horiz-adv-x="577" 
d="M425 952l-24 -120h-54l-25 120q-21 101 -21 115v195h147v-195q-5 -28 -23 -115z" />
    <glyph glyph-name="parenleft" unicode="(" horiz-adv-x="500" 
d="M425 -343q-298 376 -298 827t298 827h75q-246 -389 -246 -827t246 -827h-75z" />
    <glyph glyph-name="parenright" unicode=")" horiz-adv-x="714" 
d="M215 -343h-77q246 389 246 827t-246 827h77q297 -376 297 -827t-297 -827z" />
    <glyph glyph-name="asterisk" unicode="*" horiz-adv-x="655" 
d="M445 925l133 -168l-74 -54l-118 178l-118 -178l-72 52l129 170l-202 57l27 85l199 -73l-10 211h94l-10 -211l199 73l27 -85z" />
    <glyph glyph-name="plus" unicode="+" horiz-adv-x="955" 
d="M592 373v-373h-104v373h-373v104h373v373h104v-373h373v-104h-373z" />
    <glyph glyph-name="comma" unicode="," horiz-adv-x="385" 
d="M127 -263v47q85 7 108 73q9 26 9 143h-117v164h183v-204q0 -216 -183 -223z" />
    <glyph glyph-name="hyphen" unicode="-" horiz-adv-x="555" 
d="M109 368v126h418v-126h-418z" />
    <glyph glyph-name="period" unicode="." horiz-adv-x="432" 
d="M127 0v166h181v-166h-181z" />
    <glyph glyph-name="slash" unicode="/" horiz-adv-x="572" 
d="M211 -30h-137l427 1316h137z" />
    <glyph glyph-name="zero" unicode="0" horiz-adv-x="1046" 
d="M623 -22q-423 0 -423 644q0 681 423 681t423 -667q0 -658 -423 -658zM902 640q0 548 -279 548t-279 -548q0 -547 274 -547q284 0 284 547z" />
    <glyph glyph-name="one" unicode="1" horiz-adv-x="646" 
d="M501 0v920h-301v94q192 19 247.5 74.5t56.5 191.5h142v-1280h-145z" />
    <glyph glyph-name="two" unicode="2" horiz-adv-x="1054" 
d="M431 296q-57 -58 -64 -171h687v-125h-852q8 217 86 327.5t275 222.5l173 98q151 86 151 276q0 116 -74.5 190t-190.5 74q-250 0 -277 -320h-145q17 435 426 435q181 0 298 -100.5t117 -300.5q0 -210 -171 -315l-166 -101q-216 -132 -273 -190z" />
    <glyph glyph-name="three" unicode="3" horiz-adv-x="1069" 
d="M628 -22q-388 0 -428 395h145q22 -280 289 -280q288 0 288 275q0 209 -184 238q-19 3 -182 9l3 121q133 3 176 13q149 36 149 205q0 234 -249 234t-264 -280h-142q13 395 405 395q181 0 288.5 -87t107.5 -257q0 -198 -210 -280q135 -44 192 -119t57 -189
q0 -186 -122.5 -289.5t-318.5 -103.5z" />
    <glyph glyph-name="four" unicode="4" horiz-adv-x="1098" 
d="M903 293v-293h-145v293h-558v157l598 830h105v-862h195v-125h-195zM758 1051l-448 -633h448v633z" />
    <glyph glyph-name="five" unicode="5" horiz-adv-x="1073" 
d="M627 -23q-350 0 -427 332h142q64 -216 283 -217q145 0 223 89t78 230q0 160 -78 244.5t-223 84.5q-144 0 -251 -120h-132l97 660h664v-125h-552l-58 -389q122 89 258 89q194 -1 308 -110t114 -309t-122 -329.5t-324 -129.5z" />
    <glyph glyph-name="six" unicode="6" horiz-adv-x="1062" 
d="M637 -22q-437 0 -437 626q0 698 468 698q306 0 367 -314h-144q-49 199 -236 199q-309 0 -309 -547q125 166 311 166q187 0 296 -110t109 -294t-117.5 -304t-307.5 -120zM847.5 608.5q-68.5 82.5 -200.5 82.5t-211.5 -80t-79.5 -210q0 -127 77 -217.5t203 -90.5t203 86.5
t77 216.5t-68.5 212.5z" />
    <glyph glyph-name="seven" unicode="7" horiz-adv-x="1066" 
d="M527 0h-151q57 424 551 1155h-727v125h866v-120q-433 -566 -539 -1160z" />
    <glyph glyph-name="eight" unicode="8" horiz-adv-x="1072" 
d="M947 83.5q-125 -105.5 -312 -105.5q-188 0 -311.5 106t-123.5 286q0 211 242 320q-103 64 -148 122.5t-45 151.5q0 160 110.5 249t277.5 89q163 0 274.5 -87.5t111.5 -250.5q0 -92 -44.5 -152.5t-149.5 -121.5q243 -109 243 -322q0 -179 -125 -284.5zM637 1187
q-107 0 -175 -57t-68 -163t69 -164t173 -58t173 57t69 159q0 110 -67 168t-174 58zM637 630q-127 0 -209 -70t-82 -194t80.5 -198.5t207.5 -74.5t210 73.5t83 197.5t-80.5 195t-209.5 71z" />
    <glyph glyph-name="nine" unicode="9" horiz-adv-x="1049" 
d="M1049 675q0 -697 -457 -697q-305 0 -361 314h143q47 -199 230 -199q309 0 309 539q-149 -160 -323 -160t-282 115t-108 297t118 300t304 118q427 0 427 -627zM904 877q0 133 -76.5 221.5t-204.5 88.5t-203 -86t-75 -219t71 -213.5t199 -80.5t208.5 82t80.5 207z" />
    <glyph glyph-name="colon" unicode=":" horiz-adv-x="373" 
d="M147 0v166h181v-166h-181zM147 709v166h181v-166h-181z" />
    <glyph glyph-name="semicolon" unicode=";" horiz-adv-x="425" 
d="M163 709v166h181v-166h-181zM162 -263v47q83 7 108 73q9 32 9 143h-117v164h183v-204q0 -216 -183 -223z" />
    <glyph glyph-name="less" unicode="&#x3c;" horiz-adv-x="944" 
d="M86 412v110l861 364v-118l-730 -300l730 -302v-118z" />
    <glyph glyph-name="equal" unicode="=" horiz-adv-x="973" 
d="M115 572v105h850v-105h-850zM115 253v108h850v-108h-850z" />
    <glyph glyph-name="greater" unicode="&#x3e;" horiz-adv-x="969" 
d="M115 48v118l727 297l-727 305v118l856 -364v-110z" />
    <glyph glyph-name="question" unicode="?" horiz-adv-x="939" 
d="M601 585q-54 -52 -54 -131v-80h-140v86q0 109 114 219l122 118q89 86 89 191q0 104 -69 159t-175 55q-241 0 -246 -277h-129q5 395 385 395q164 0 268.5 -86t104.5 -236t-92 -240zM407 18v162h140v-162h-140z" />
    <glyph glyph-name="at" unicode="@" horiz-adv-x="1734" 
d="M1738 690q0 -217 -140 -381.5t-334 -164.5q-162 0 -188 150q-128 -143 -256 -143t-205.5 93.5t-77.5 223.5q0 182 132.5 332t315.5 150q143 0 218 -175l45 138h124l-154 -483q-22 -69 -22 -102.5t30.5 -58t70.5 -24.5q117 0 213 130t96 292q0 234 -191.5 396t-419.5 162
q-313 0 -525 -210q-212 -209 -212 -481t192.5 -451.5t485.5 -179.5q140 0 336 54l42 -99q-192 -70 -386 -70q-317 0 -559 198t-242 505q0 351 255.5 600t609.5 249q290 0 518 -186t228 -464zM972 859q-120 0 -208.5 -124t-88.5 -269q0 -85 51.5 -153t134.5 -68
q129 0 210 153.5t81 289.5q0 75 -52 123t-128 48z" />
    <glyph glyph-name="A" unicode="A" horiz-adv-x="1267" 
d="M1105 0l-135 393h-519l-136 -393h-155l457 1283h198l452 -1283h-162zM714 1149l-230 -638h447z" />
    <glyph glyph-name="B" unicode="B" horiz-adv-x="1117" 
d="M861 674q256 -91 256 -312q0 -167 -102 -264.5t-273 -97.5h-582v1280h523q182 0 279 -85t97 -229q0 -199 -198 -292zM641 1155h-336v-436h336q116 0 195 60t79 166q0 80 -65.5 145t-208.5 65zM974 358q0 150 -96 193t-229 43h-344v-469h420q113 0 181 60.5t68 172.5z" />
    <glyph glyph-name="C" unicode="C" horiz-adv-x="1261" 
d="M737 -23q-244 0 -410.5 162.5t-166.5 495.5q0 294 150 481.5t435 187.5q408 0 487 -398h-145q-63 273 -362 273q-219 0 -319.5 -158.5t-100.5 -382.5q0 -268 122.5 -402t312.5 -134q310 0 372 363h149q-64 -488 -524 -488z" />
    <glyph glyph-name="D" unicode="D" horiz-adv-x="1176" 
d="M1008.5 135.5q-167.5 -135.5 -356.5 -135.5h-492v1280h492q266 0 395 -182t129 -457q0 -370 -167.5 -505.5zM625 1155h-322v-1030h322q405 0 405 515t-405 515z" />
    <glyph glyph-name="E" unicode="E" horiz-adv-x="1079" 
d="M160 0v1280h886v-125h-741v-436h715v-125h-715v-469h774v-125h-919z" />
    <glyph glyph-name="F" unicode="F" horiz-adv-x="1021" 
d="M305 1155v-436h629v-125h-629v-594h-145v1280h861v-125h-716z" />
    <glyph glyph-name="G" unicode="G" horiz-adv-x="1330" 
d="M1243 12l-44 182q-197 -216 -460 -216t-421 191.5t-158 455.5q0 304 163.5 491t452.5 187q453 0 533 -387h-147q-32 128 -135.5 195t-248.5 67q-236 0 -354.5 -152t-118.5 -383t121.5 -385.5t357.5 -154.5q182 0 301 110.5t119 292.5v47h-395v125h521v-666h-87z" />
    <glyph glyph-name="H" unicode="H" horiz-adv-x="1145" 
d="M1002 0v594h-697v-594h-145v1280h145v-561h697v561h143v-1280h-143z" />
    <glyph glyph-name="I" unicode="I" horiz-adv-x="305" 
d="M160 0v1280h145v-1280h-145z" />
    <glyph glyph-name="J" unicode="J" horiz-adv-x="876" 
d="M780 70q-96 -93 -262 -93t-262 86t-96 243v103h145v-73q0 -234 213 -234t213 286v892h145v-952q0 -165 -96 -258z" />
    <glyph glyph-name="K" unicode="K" horiz-adv-x="1168" 
d="M998 0l-467 675l-226 -226v-449h-145v1280h145v-676l669 676h183l-521 -519l532 -761h-170z" />
    <glyph glyph-name="L" unicode="L" horiz-adv-x="955" 
d="M160 0v1280h145v-1155h650v-125h-795z" />
    <glyph glyph-name="M" unicode="M" horiz-adv-x="1384" 
d="M1239 0v1149l-386 -1149h-160l-388 1149v-1149h-145l10 1280h211l394 -1161l387 1161h222v-1280h-145z" />
    <glyph glyph-name="N" unicode="N" horiz-adv-x="1182" 
d="M1000 0l-695 1086v-1086h-145v1283h174l703 -1091v1091h145v-1283h-182z" />
    <glyph glyph-name="O" unicode="O" horiz-adv-x="1396" 
d="M776 -23q-283 0 -449.5 186.5t-166.5 474.5t164.5 476.5t454.5 188.5t453.5 -189t163.5 -478t-168.5 -474t-451.5 -185zM305 639q0 -225 122 -381.5t347 -156.5q228 0 352.5 154.5t124.5 382.5t-120.5 384t-349.5 156t-352.5 -155t-123.5 -384z" />
    <glyph glyph-name="P" unicode="P" horiz-adv-x="1079" 
d="M728 552h-423v-552h-145v1280h530q389 0 389 -371q0 -162 -93.5 -259.5t-257.5 -97.5zM666 1155h-361v-478h361q118 0 193 60.5t75 178.5t-74 178.5t-194 60.5z" />
    <glyph glyph-name="Q" unicode="Q" horiz-adv-x="1398" 
d="M1206 140l171 -138l-70 -84l-186 150q-157 -90 -342 -90q-288 0 -453.5 186t-165.5 476t164.5 476.5t452.5 186.5t454.5 -186.5t166.5 -479.5t-192 -497zM779 1178q-230 0 -352 -154.5t-122 -384.5q0 -224 117 -380t362 -156q118 0 228 62l-137 104l68 82l158 -126
q152 168 152 406t-121 392.5t-353 154.5z" />
    <glyph glyph-name="R" unicode="R" horiz-adv-x="1190" 
d="M1007 0q-33 80 -33 331q0 230 -227 230h-442v-561h-145v1280h592q386 0 386 -337q0 -112 -50.5 -182.5t-167.5 -129.5q115 -49 154.5 -120t39.5 -199q0 -228 76 -288v-24h-183zM721 1155h-416v-469h416q257 0 257 234t-257 235z" />
    <glyph glyph-name="S" unicode="S" horiz-adv-x="1168" 
d="M1026 71q-142 -94 -368 -94q-220 0 -355.5 107t-142.5 320h138q5 -302 378 -302q347 0 347 241q0 156 -249 221l-324 84q-250 65 -250 289q0 183 129 274.5t332 91.5t330.5 -93t132.5 -282h-136q-9 250 -338 250q-139 0 -222 -50t-83 -166q0 -144 223 -203l330 -87
q270 -71 270 -315q0 -192 -142 -286z" />
    <glyph glyph-name="T" unicode="T" horiz-adv-x="1166" 
d="M735 1155v-1155h-145v1155h-430v125h1006v-125h-431z" />
    <glyph glyph-name="U" unicode="U" horiz-adv-x="1143" 
d="M1143 390q0 -199 -140 -306t-356 -107t-351.5 104t-135.5 309v890h145v-890q0 -288 346 -288t347 288v890h145v-890z" />
    <glyph glyph-name="V" unicode="V" horiz-adv-x="1231" 
d="M786 0h-164l-462 1280h157l391 -1126l371 1126h152z" />
    <glyph glyph-name="W" unicode="W" horiz-adv-x="1747" 
d="M1423 0h-164l-307 1101l-300 -1101h-166l-326 1280h162l253 -1094l297 1094h160l307 -1094l246 1094h162z" />
    <glyph glyph-name="X" unicode="X" horiz-adv-x="1241" 
d="M1062 0l-361 552l-366 -552h-175l455 658l-427 622h176l342 -521l342 521h172l-432 -622l453 -658h-179z" />
    <glyph glyph-name="Y" unicode="Y" horiz-adv-x="1280" 
d="M799 503v-503h-145v503l-494 777h180l390 -645l379 645h171z" />
    <glyph glyph-name="Z" unicode="Z" horiz-adv-x="1135" 
d="M160 0v133l799 1022h-748v125h920v-138l-795 -1017h799v-125h-975z" />
    <glyph glyph-name="bracketleft" unicode="[" horiz-adv-x="459" 
d="M127 -374v1654h326v-106h-193v-1442h193v-106h-326z" />
    <glyph glyph-name="backslash" unicode="\" horiz-adv-x="572" 
d="M501 -30l-427 1316h137l427 -1316h-137z" />
    <glyph glyph-name="bracketright" unicode="]" horiz-adv-x="451" 
d="M84 -374v106h194v1442h-194v106h326v-1654h-326z" />
    <glyph glyph-name="asciicircum" unicode="^" horiz-adv-x="722" 
d="M652 562l-230 566l-227 -566h-101l268 669h119l272 -669h-101z" />
    <glyph glyph-name="underscore" unicode="_" horiz-adv-x="999" 
d="M35 -171v110h1054v-110h-1054z" />
    <glyph glyph-name="grave" unicode="`" horiz-adv-x="490" 
d="M431 887l-253 261h175l164 -261h-86z" />
    <glyph glyph-name="a" unicode="a" horiz-adv-x="1044" 
d="M950 -23q-131 0 -150 150q-176 -150 -324 -150t-232 67.5t-84 198.5q0 123 72 182.5t289 92.5q170 25 223.5 44.5t53.5 115.5q0 150 -219 150t-243 -164h-131q18 279 370 279t352 -242v-537q0 -84 94 -84h23v-88q-57 -15 -94 -15zM798 482q-54 -24 -144.5 -38t-158.5 -28
q-197 -42 -197 -171q0 -158 200 -158q170 0 235 79t65 136v180z" />
    <glyph glyph-name="b" unicode="b" horiz-adv-x="987" 
d="M586 -23q-186 0 -312 184v-161h-114v1280h128v-516q121 179 311 179t289 -135t99 -337q0 -218 -104.5 -356t-296.5 -138zM781.5 716.5q-69.5 111.5 -212.5 111.5t-212 -115t-69 -254q0 -163 76.5 -265t211.5 -102t205 108.5t70 256.5t-69.5 259.5z" />
    <glyph glyph-name="c" unicode="c" horiz-adv-x="949" 
d="M571 -23q-202 0 -306.5 138t-104.5 349q0 212 110 345.5t303 133.5q329 0 364 -317h-130q-31 202 -236 202q-152 0 -213.5 -112t-61.5 -259t65 -256t216 -109q198 0 242 224h130q-17 -159 -115.5 -249t-262.5 -90z" />
    <glyph glyph-name="d" unicode="d" horiz-adv-x="984" 
d="M873 0v163q-132 -186 -324 -186t-290.5 141t-98.5 344t100 342t291 139t305 -169v506h128v-1280h-111zM580 828q-145 0 -215.5 -112t-70.5 -257q0 -148 70 -257.5t213 -109.5q144 0 211.5 110.5t67.5 256.5t-65 257.5t-211 111.5z" />
    <glyph glyph-name="e" unicode="e" horiz-adv-x="1000" 
d="M294 431q3 -147 75 -243t218 -96q193 0 258 184h133q-67 -299 -396 -299q-208 0 -315 135t-107 338t108 348t304 145t310.5 -112t117.5 -400h-706zM855 529q-1 123 -73 211t-200 88t-201 -88.5t-84 -210.5h558z" />
    <glyph glyph-name="f" unicode="f" horiz-adv-x="581" 
d="M291 1078q0 202 216 202q37 0 74 -5v-103h-42q-118 0 -118 -106v-152h160v-100h-160v-814h-130v814h-131v100h131v164z" />
    <glyph glyph-name="g" unicode="g" horiz-adv-x="968" 
d="M556 -362q-330 0 -364 258h130q29 -142 227 -143q195 0 240.5 95t45.5 302q-117 -174 -298 -174t-279 142.5t-98 347.5t106.5 341t281.5 136t302 -182v159h118v-762q0 -257 -84 -388.5t-328 -131.5zM568 828q-145 0 -210.5 -111t-65.5 -257t64.5 -257t210.5 -111t207 108
t61 254q0 374 -267 374z" />
    <glyph glyph-name="h" unicode="h" horiz-adv-x="892" 
d="M765 0v641q0 91 -58 141.5t-151 50.5q-134 0 -201.5 -94.5t-67.5 -230.5v-508h-127v1280h127v-513q138 176 316 176q130 0 209.5 -61t79.5 -181v-701h-127z" />
    <glyph glyph-name="i" unicode="i" horiz-adv-x="289" 
d="M160 1115v165h129v-165h-129zM162 0v916h127v-916h-127z" />
    <glyph glyph-name="j" unicode="j" horiz-adv-x="458" 
d="M331 1115v165h127v-165h-127zM221 -362q-37 0 -61 5v105h26q145 0 145 130v1038h127v-1094q0 -184 -237 -184z" />
    <glyph glyph-name="k" unicode="k" horiz-adv-x="931" 
d="M772 0l-325 515l-160 -155v-360h-127v1280h127v-777l419 413h162l-317 -310l380 -606h-159z" />
    <glyph glyph-name="l" unicode="l" horiz-adv-x="287" 
d="M160 0v1280h127v-1280h-127z" />
    <glyph glyph-name="m" unicode="m" horiz-adv-x="1375" 
d="M1248 0v636q0 197 -184 197q-103 0 -168.5 -76.5t-65.5 -179.5v-577h-127v636q0 197 -185 197q-100 0 -165.5 -76.5t-65.5 -179.5v-577h-127v920h115v-161q131 184 301 184t250 -151q124 151 290 151q259 0 259 -250v-693h-127z" />
    <glyph glyph-name="n" unicode="n" horiz-adv-x="890" 
d="M763 0v639q0 93 -57 143.5t-150 50.5q-136 0 -202 -95.5t-66 -229.5v-508h-128v920h116v-188q135 211 325 211q130 0 209.5 -61.5t79.5 -183.5v-698h-127z" />
    <glyph glyph-name="o" unicode="o" horiz-adv-x="990" 
d="M576 -23q-208 0 -312 134t-104 348t103 349t313 135t312 -135t102 -351t-103 -348t-311 -132zM575 828q-281 0 -281 -367q0 -369 279 -369q284 0 284 364q0 372 -282 372z" />
    <glyph glyph-name="p" unicode="p" horiz-adv-x="980" 
d="M885.5 804q94.5 -139 94.5 -344t-98 -344t-280 -139t-313 157v-496h-129v1282h115v-168q126 191 321 191t289.5 -139zM779.5 716q-67.5 112 -212.5 112q-146 0 -212 -112t-66 -274t81 -256t193 -94q141 0 212.5 111.5t71.5 255.5q0 145 -67.5 257z" />
    <glyph glyph-name="q" unicode="q" horiz-adv-x="984" 
d="M855 -362v511q-120 -172 -310 -172t-287.5 134t-97.5 353t112 349t293 130q182 0 308 -172v149h111v-1282h-129zM789.5 201.5q65.5 109.5 65.5 269.5t-74.5 258.5t-208.5 98.5q-135 0 -207.5 -113t-72.5 -258q0 -144 71.5 -254.5t216.5 -110.5q144 0 209.5 109.5z" />
    <glyph glyph-name="r" unicode="r" horiz-adv-x="602" 
d="M289 478v-478h-129v925h117v-198q132 216 276 216q19 0 49 -3v-112q-159 -4 -236 -99t-77 -251z" />
    <glyph glyph-name="s" unicode="s" horiz-adv-x="908" 
d="M908 249q0 -272 -370 -272q-369 0 -378 294h137q29 -179 252 -179t223 154q0 102 -181 148l-206 52q-201 51 -201 233q0 143 99 203.5t252 60.5q327 0 335 -261h-138q-12 146 -212 146q-201 0 -201 -146q0 -93 207 -149l169 -46q213 -58 213 -238z" />
    <glyph glyph-name="t" unicode="t" horiz-adv-x="583" 
d="M467 -23q-173 0 -173 135v708h-134v100h134v258h128v-258h161v-100h-161v-642q0 -91 97 -91q39 0 64 2v-103q-67 -9 -116 -9z" />
    <glyph glyph-name="u" unicode="u" horiz-adv-x="894" 
d="M781 0v170q-142 -193 -328 -193q-129 0 -211 61.5t-82 178.5v703h127v-644q0 -90 58 -141.5t151 -51.5q131 0 201 96.5t70 227.5v513h127v-920h-113z" />
    <glyph glyph-name="v" unicode="v" horiz-adv-x="986" 
d="M633 0h-148l-325 920h145l261 -786l276 786h144z" />
    <glyph glyph-name="w" unicode="w" horiz-adv-x="1386" 
d="M1116 0h-152l-199 775l-190 -775h-150l-265 920h140l202 -766l186 766h165l194 -766l194 766h145z" />
    <glyph glyph-name="x" unicode="x" horiz-adv-x="941" 
d="M795 0l-244 372l-246 -372h-145l327 470l-307 450h142l234 -349l236 349h139l-309 -442l319 -478h-146z" />
    <glyph glyph-name="y" unicode="y" horiz-adv-x="956" 
d="M541 -176q-70 -186 -234 -186q-49 0 -91 20v112q40 -7 70 -7q97 0 132 99l58 164l-316 894h138l248 -720l270 720h140z" />
    <glyph glyph-name="z" unicode="z" horiz-adv-x="908" 
d="M160 0v122l571 688h-532v110h683v-117l-575 -693h601v-110h-748z" />
    <glyph glyph-name="braceleft" unicode="{" horiz-adv-x="526" 
d="M451 -371q-189 0 -189 223v298q0 225 -145 253v106q145 32 145 255v298q0 221 189 221h74v-94q-82 0 -113.5 -24.5t-31.5 -104.5v-323q0 -212 -169 -280q169 -74 169 -281v-321q0 -84 33 -107t112 -25v-94h-74z" />
    <glyph glyph-name="bar" unicode="|" horiz-adv-x="335" 
d="M147 -371v1651h104v-1651h-104z" />
    <glyph glyph-name="braceright" unicode="}" horiz-adv-x="504" 
d="M328 150v-298q0 -223 -192 -223h-77v94q84 2 116 25t32 107v321q0 207 170 279q-170 75 -170 282v323q0 80 -33 104.5t-115 24.5v94h77q192 0 192 -221v-298q0 -222 139 -255v-106q-139 -32 -139 -253z" />
    <glyph glyph-name="asciitilde" unicode="~" horiz-adv-x="910" 
d="M882 933q0 -229 -175 -229q-84 0 -167 59l-145 103q-47 33 -91 33q-95 0 -108 -148h-73q16 251 183 251q49 0 91 -27l212 -136q50 -32 96 -32q100 0 103 143h74v-17z" />
    <glyph glyph-name="uni00AD" unicode="&#xad;" horiz-adv-x="0" 
 />
    <glyph glyph-name="anuswara" unicode="&#xd02;" horiz-adv-x="685" 
d="M708 271q0 -120 -86.5 -206t-206.5 -86t-206.5 86t-86.5 206q0 121 86.5 208t206.5 87t206.5 -87t86.5 -208zM584 271q0 72 -50 122t-120 50t-119 -50t-49 -122q0 -71 49 -120t119 -49t120 49t50 120z" />
    <glyph glyph-name="visarga" unicode="&#xd03;" horiz-adv-x="452" 
d="M461 706q0 -68 -49.5 -116t-117.5 -48t-116.5 48t-48.5 116q0 69 49 118q48 49 116 49t117.5 -49t49.5 -118zM357 706q0 64 -62 64t-62 -64q0 -63 62 -63t62 63zM411.5 313q49.5 -49 49.5 -117t-49.5 -116.5t-117.5 -48.5t-116 49q-48 48 -49 116q0 68 49 117
q48 49 116 49t117.5 -49zM357 196q0 62 -62 63q-62 -1 -62 -63t62 -62t62 62z" />
    <glyph glyph-name="ml_a" unicode="&#xd05;" horiz-adv-x="2294" 
d="M2295 385q0 -168 -87 -287t-239 -119t-243.5 103.5t-91.5 253.5t92.5 262.5t238.5 112.5q45 0 87 -12q-105 125 -290 125q-118 0 -197 -67t-79 -182v-575h-135v573q0 126 -85 188t-216 62h-28q44 -24 79.5 -85.5t35.5 -120.5q0 -143 -127 -180q61 -17 100.5 -76.5
t39.5 -131.5q0 -111 -84 -180.5t-199 -69.5q-174 0 -273.5 128t-99.5 311q0 246 202 405h-52q-166 0 -271.5 -115t-105.5 -283q0 -242 190 -361l-89 -87q-223 157 -223 450q0 212 151 364t365 152q125 0 194 -38q71 38 199 38q273 0 369 -139q84 139 351 139q221 0 371 -168
t150 -390zM1816 169q58 -75 156 -75t149.5 75t51.5 181t-47 206q-62 39 -159 39t-154 -75.5t-57 -175.5t60 -175zM1015 239q0 132 -178 132h-71v103h71q70 0 118 37.5t48 105.5q0 98 -148 167q-241 -115 -241 -369q0 -124 61 -216.5t178 -92.5q59 0 110.5 37.5t51.5 95.5z
" />
    <glyph glyph-name="ml_aa" unicode="&#xd06;" horiz-adv-x="2566" 
d="M2460 561.5q108 -141.5 108 -373.5t-143.5 -401.5t-367.5 -169.5q-130 0 -253 81l49 103q96 -73 201 -73q176 0 288.5 138.5t112.5 330.5q0 143 -62.5 254.5t-178.5 146.5q47 -89 47 -238q0 -158 -71.5 -267.5t-233.5 -109.5q-152 0 -229.5 93t-77.5 257t98.5 277
t257.5 113q-95 100 -228 100t-211.5 -64.5t-78.5 -185.5v-573h-136v570q0 124 -77.5 188t-189.5 64q-5 0 -50 -1q104 -86 104 -206q0 -143 -128 -180q64 -17 102.5 -76t38.5 -131q0 -113 -80.5 -179t-198.5 -66q-183 0 -280.5 121.5t-97.5 310.5q0 239 197 406q-51 1 -56 1
q-153 0 -262.5 -117.5t-109.5 -281.5q0 -240 194 -362l-89 -85q-223 155 -223 449q0 211 150 364.5t361 153.5q136 0 207 -40q71 40 192 40q253 0 368 -141q103 141 334 141q276 0 401 -218q194 -22 302 -163.5zM2141 354q0 155 -61 258q-23 3 -45 3q-121 0 -193 -81.5
t-72 -193.5t45 -176.5t134 -64.5q192 0 192 255zM1015 239q0 85 -89 113q-49 17 -159 17v103q236 0 236 143q0 56 -46.5 101.5t-93.5 60.5q-101 -24 -175 -134t-74 -230t61.5 -213.5t177.5 -93.5q59 0 110.5 37t51.5 96z" />
    <glyph glyph-name="ml_i" unicode="&#xd07;" horiz-adv-x="1650" 
d="M1220 943q209 0 321.5 -129t112.5 -336q0 -208 -147 -343t-353 -135h-694q-57 0 -106 -32t-49 -90t45.5 -90t107.5 -32h1177v-120h-1197q-114 0 -190 66t-76 177t76 172.5t190 61.5h686q157 0 271.5 101.5t114.5 256.5t-81.5 253.5t-216.5 98.5q-88 0 -142 -76.5
t-54 -176.5v-376h-148v376q0 107 -91 180t-207 73t-201 -60t-99 -174q9 63 69 93t126 30q103 0 167 -78.5t64 -195.5t-78.5 -190.5t-204 -73.5t-198 98t-72.5 248q0 200 122 311.5t326 111.5q247 0 348 -155q74 155 281 155zM529 330q41 38 41 107t-36 116t-98 47
t-106 -43.5t-44 -107.5t38 -110.5t101 -46.5t104 38z" />
    <glyph glyph-name="ml_ii" unicode="&#xd08;" horiz-adv-x="2912" 
d="M2815.5 819.5q99.5 -123.5 99.5 -327.5q0 -202 -108 -357.5t-349 -155.5q-168 0 -261 89.5t-93 192.5h133q34 -159 214 -159q319 0 319 372q0 346 -233 346q-67 0 -116.5 -51.5t-49.5 -124.5v-168h-146v150q0 194 -152 194q-92 0 -131.5 -61t-39.5 -197q0 -21 5 -105
h-125q-12 96 -12 122q0 364 327 364q138 0 204 -113q44 61 98 87t164 26q153 0 252.5 -123.5zM1219 943q210 0 322.5 -130.5t112.5 -336.5t-147 -341t-354 -135h-693q-57 0 -106 -32t-49 -90t45.5 -90t106.5 -32h1178v-120h-1197q-114 0 -190 66t-76 177t76 172.5t190 61.5
h685q158 0 272.5 101.5t114.5 256.5t-81.5 253.5t-216.5 98.5q-89 0 -143 -76.5t-54 -176.5v-376h-147v376q0 108 -91.5 180.5t-206.5 72.5t-201 -60t-99 -174q9 63 69 93t126 30q103 0 167 -78.5t64 -195.5t-78.5 -190.5t-204.5 -73.5t-198 98t-72 248q0 200 122 311.5
t326 111.5q247 0 348 -155q74 155 280 155zM528.5 330q41.5 38 41.5 107t-36.5 116t-98.5 47t-105.5 -43.5t-43.5 -107.5t37.5 -110.5t100.5 -46.5t104.5 38z" />
    <glyph glyph-name="ml_u" unicode="&#xd09;" horiz-adv-x="1211" 
d="M1212 445q0 -445 -475 -445h-282q-143 0 -143 -116q0 -58 43 -92t100 -34h736v-122h-758q-112 0 -189 69t-77 177t76 168t190 60h275q359 0 359 337q0 194 -130 285t-298 91q-104 0 -209.5 -54t-136.5 -155q54 89 168 89t186.5 -72.5t72.5 -192.5t-81 -192t-206.5 -72
t-205.5 88.5t-80 229.5q0 213 143 332t372 119t389.5 -126.5t160.5 -371.5zM536 332.5q39 42.5 39 110.5t-38 111t-102 43t-105.5 -43t-41.5 -109q0 -67 41.5 -111t104.5 -44t102 42.5z" />
    <glyph glyph-name="ml_uu" unicode="&#xd0a;" horiz-adv-x="2484" 
d="M2389.5 818q95.5 -125 95.5 -331t-106.5 -357.5t-350.5 -151.5q-175 0 -264.5 89.5t-89.5 192.5h132q34 -160 214 -160q320 0 320 371q0 352 -234 352q-66 0 -115.5 -54t-49.5 -127v-168h-147v150q0 199 -153 199q-91 0 -130 -63.5t-39 -199.5q0 -22 5 -106h-126
q-12 96 -12 123q0 366 327 366q134 0 204 -115q41 59 99 87t153 28q172 0 267.5 -125zM1212 445q0 -445 -476 -445h-282q-142 0 -142 -116q0 -58 43 -92t99 -34h737v-122h-758q-112 0 -189.5 69t-77.5 178t76.5 169t190.5 60h275q358 0 358 335q0 190 -129 283t-298 93
q-104 0 -209.5 -54t-137.5 -155q54 89 168 89t187 -72.5t73 -192.5t-81 -192t-207 -72t-205.5 88.5t-79.5 229.5q0 213 143 332t372 119t389.5 -126.5t160.5 -371.5zM535 332.5q39 42.5 39 110.5t-37.5 111t-101.5 43q-65 0 -106 -43t-41 -109q0 -67 41 -111t104 -44
t102 42.5z" />
    <glyph glyph-name="ml_r" unicode="&#xd0b;" horiz-adv-x="1454" 
d="M948 867q80 76 211 76t215.5 -109.5t84.5 -255.5q0 -140 -70 -245t-197 -159q234 -41 234 -247q0 -173 -190.5 -245.5t-438.5 -72.5q-244 0 -428 71t-184 247q0 150 228 247q-128 40 -199 151.5t-71 254.5q0 150 81 256.5t236 106.5q115 0 191 -76.5t76 -194.5t-72 -196
t-183 -78q-66 0 -124.5 39t-79.5 104q0 -307 532 -307t533 307q-17 -67 -77.5 -105t-129.5 -38q-108 0 -183.5 80t-75.5 196q1 116 81 193zM1288 673q0 61 -39 105.5t-107 44.5t-108.5 -44.5t-40.5 -104.5t42 -107q43 -47 109 -47t105 46t39 107zM601 673q0 61 -38.5 105.5
t-106.5 44.5t-109.5 -44.5t-41.5 -104.5t42 -107t108 -47t106 46t40 107zM1283 -73q0 176 -479 176t-479 -176q0 -185 472 -185q486 0 486 185z" />
    <glyph glyph-name="ml_l" unicode="&#xd0c;" horiz-adv-x="1784" 
d="M1785 390q0 -172 -86 -291.5t-256 -119.5q-135 0 -219 78.5t-84 210.5t81.5 222.5t204.5 90.5q71 0 140 -33t90 -92q-9 148 -112.5 257.5t-260.5 109.5q-105 0 -178 -64t-73 -169v-594h-134v594q0 105 -72 169t-177 64q-157 0 -261.5 -109.5t-114.5 -257.5q22 59 91 92
t140 33q123 0 204.5 -90.5t81.5 -222.5t-84 -210.5t-219 -78.5q-167 0 -254.5 117.5t-87.5 293.5q0 224 134 388.5t356 164.5t329 -139q110 139 331 139q222 0 356 -164.5t134 -388.5zM1623 268q0 72 -53 124t-123 52q-68 0 -117 -53t-49 -125q0 -71 48 -119t118 -48
q72 0 124 49t52 120zM649 266q0 72 -49 125t-117 53q-70 0 -123 -52t-53 -124q0 -71 52 -120t124 -49q70 0 118 48t48 119z" />
    <glyph glyph-name="ml_e" unicode="&#xd0e;" horiz-adv-x="2028" 
d="M2028 241q0 -376 -232 -615l-89 85q104 122 144.5 240.5t40.5 289.5q0 583 -351 583q-177 0 -271.5 -155.5t-94.5 -441.5q0 -103 2 -117h278v518h137v-704q0 -117 -72.5 -205t-194.5 -88t-194 111.5t-92 257.5h-418v70q129 60 129 215q0 95 -71 161.5t-171 66.5
t-172.5 -63.5t-72.5 -159.5q0 -168 150 -220l-81 -78q-187 94 -187 298q0 150 98.5 245.5t265.5 95.5q166 0 266 -95.5t100 -229.5t-54 -196h216l-3 120q0 316 125 514.5t380 198.5q489 0 489 -702zM1455 -104v104h-266q17 -239 150 -239q52 0 84 40.5t32 94.5z" />
    <glyph glyph-name="ml_ee" unicode="&#xd0f;" horiz-adv-x="2076" 
d="M2077 -49q0 -315 -274 -315q-26 0 -100 22v140q37 -32 84 -32q164 0 164 185q0 84 -48 144t-133 60h-54v138h54q69 0 125 79.5t56 155.5q0 146 -111 220.5t-252 74.5q-203 0 -312 -177.5t-109 -476.5q0 -29 1 -59h290v519h132v-725q0 -118 -75 -199t-181 -81
q-243 0 -290 376h-423v79q129 59 129 206q0 95 -74 161.5t-171 66.5t-169.5 -63.5t-72.5 -159.5q0 -163 147 -217l-86 -90q-179 98 -179 307q0 144 108.5 242.5t254.5 98.5t255 -98.5t109 -230.5t-51 -192h218v118q0 290 137 502.5t416 212.5q222 0 353.5 -111.5
t131.5 -308.5q0 -86 -34 -169t-94 -120q128 -91 128 -283zM1455 -108v108h-273q20 -244 152 -244q52 0 86.5 41t34.5 95z" />
    <glyph glyph-name="ml_ai" unicode="&#xd10;" horiz-adv-x="3204" 
d="M3207 241q0 -380 -231 -615l-89 85q102 119 143.5 241t41.5 289q0 582 -352 582q-176 0 -271 -155t-95 -441q0 -103 2 -117h279v518h137v-704q0 -115 -73 -204t-196 -89t-193.5 111.5t-91.5 257.5h-417v70q128 60 128 215q0 95 -71.5 161.5t-171.5 66.5t-172 -63.5
t-72 -159.5q0 -168 150 -220l-80 -78q-188 94 -188 298q0 150 98.5 245.5t265.5 95.5t266.5 -95.5t99.5 -229.5t-54 -196h216v117q0 321 122 518.5t382 197.5q487 0 487 -702zM2635 -104v104h-267q17 -239 150 -239q52 0 84.5 40.5t32.5 94.5zM1202 427q0 -305 -283 -446
l-71 98q214 108 214 348q0 170 -106 283.5t-282 113.5t-283.5 -109t-118.5 -278q19 59 90.5 93.5t141.5 34.5q127 0 213.5 -84.5t86.5 -211.5t-89 -208.5t-228 -81.5q-177 0 -259.5 119t-82.5 295q0 235 144.5 392.5t384.5 157.5t384 -146t144 -370zM602 149q47 49 47 119
t-47 124.5t-120 54.5q-74 0 -124.5 -52.5t-50.5 -123.5t50.5 -121t124.5 -50q73 0 120 49z" />
    <glyph glyph-name="ml_o" unicode="&#xd12;" horiz-adv-x="1196" 
d="M1203 220q0 -113 -70 -178t-185 -65q-65 0 -129 20v124q47 -31 106 -31q145 0 145 137q0 65 -40.5 111.5t-102.5 46.5h-105v135h93q59 0 104.5 31.5t45.5 89.5q0 182 -354 182q-189 0 -309 -94.5t-129 -257.5q67 81 185 81t191.5 -79.5t73.5 -203.5q0 -122 -79.5 -207
t-215.5 -85t-211.5 124t-75.5 284q0 274 157.5 416t452.5 142q231 0 338.5 -93t107.5 -209q0 -140 -117 -185q123 -51 123 -236zM550.5 143q38.5 53 38.5 125t-41 124t-111 52t-110 -49t-40 -123t42.5 -128t112.5 -54t108.5 53z" />
    <glyph glyph-name="ml_oo" unicode="&#xd13;" horiz-adv-x="2011" 
d="M1203 220q0 -113 -70 -178t-185 -65q-65 0 -129 20v124q47 -31 106 -31q145 0 145 137q0 65 -40.5 111.5t-102.5 46.5h-105v135h93q59 0 104.5 31.5t45.5 89.5q0 182 -354 182q-189 0 -309 -94.5t-129 -257.5q67 81 185 81t191.5 -79.5t73.5 -203.5q0 -122 -79.5 -207
t-215.5 -85t-211.5 124t-75.5 284q0 274 157.5 416t452.5 142q231 0 338.5 -93t107.5 -209q0 -140 -117 -185q123 -51 123 -236zM550.5 143q38.5 53 38.5 125t-41 124t-111 52t-110 -49t-40 -123t42.5 -128t112.5 -54t108.5 53zM1313 590q3 149 91 251t261 102t261.5 -133.5
t88.5 -342.5t-88.5 -348.5t-279.5 -139.5q-153 0 -242 91.5t-89 274.5l132 4q0 -99 55.5 -172t143.5 -73q231 0 231 360q0 358 -219 359q-96 0 -155 -67.5t-59 -165.5h-132z" />
    <glyph glyph-name="ml_au" unicode="&#xd14;" horiz-adv-x="2465" 
d="M1203 220q0 -113 -70 -178t-185 -65q-65 0 -129 20v124q47 -31 106 -31q145 0 145 137q0 65 -40.5 111.5t-102.5 46.5h-105v135h93q59 0 104.5 31.5t45.5 89.5q0 182 -354 182q-189 0 -309 -94.5t-129 -257.5q67 81 185 81t191.5 -79.5t73.5 -203.5q0 -122 -79.5 -207
t-215.5 -85t-211.5 124t-75.5 284q0 274 157.5 416t452.5 142q231 0 338.5 -93t107.5 -209q0 -140 -117 -185q123 -51 123 -236zM550.5 143q38.5 53 38.5 125t-41 124t-111 52t-110 -49t-40 -123t42.5 -128t112.5 -54t108.5 53zM2361 820q102 -123 102 -328t-106 -359
t-352 -154q-168 0 -261 89.5t-93 192.5h134q34 -159 213 -159q319 0 319 371q0 350 -232 350q-66 0 -115.5 -52.5t-49.5 -127.5v-168h-147v150q0 198 -153 198q-91 0 -130.5 -62t-39.5 -200q0 -21 6 -105h-126q-12 96 -12 122q0 365 326 365q139 0 204 -112q39 57 97 84.5
t162 27.5q152 0 254 -123z" />
    <glyph glyph-name="k1" unicode="&#xd15;" horiz-adv-x="1607" 
d="M1297 573q132 0 221 -76.5t89 -214.5q0 -136 -72 -220.5t-208 -84.5q-56 0 -101 17v125q40 -24 82 -24q164 0 164 190q0 165 -194 165h-73v-53q0 -420 -330 -420q-202 0 -265 137q-45 -137 -207 -137q-128 0 -193 89.5t-65 215.5q0 128 85 209.5t215 81.5h94v31
q0 145 94 242t243 97t239 -98t90 -241v-31h92zM1069 573v26q0 90 -56.5 157t-144.5 67q-89 0 -144 -68t-55 -161v-21h400zM1069 405v45h-400v-48q0 -309 200 -309t200 312zM539 400v50h-65q-209 0 -209 -168q0 -71 37.5 -129t103.5 -58t103.5 48t37.5 95q0 18 -8 162z" />
    <glyph glyph-name="k2" unicode="&#xd16;" horiz-adv-x="1532" 
d="M1534 0h-666v101q150 96 150 324q0 169 -94.5 284t-267.5 115t-279.5 -117t-106.5 -250v-17q52 120 184 120t205 -84.5t73 -207.5q0 -125 -72 -207t-193 -82q-170 0 -247 117.5t-77 283.5q0 246 142.5 404.5t370.5 158.5t366.5 -151t138.5 -361t-106 -318h343v807h136
v-920zM569 143.5q41 51.5 41 122.5t-41 122.5t-111 51.5t-111.5 -51.5t-41.5 -122.5t41.5 -122.5t111.5 -51.5t111 51.5z" />
    <glyph glyph-name="k3" unicode="&#xd17;" horiz-adv-x="1532" 
d="M1534 446q0 -323 -278 -467l-88 85q241 106 241 399q0 145 -77.5 252.5t-208.5 107.5q-209 0 -209 -335v-136q0 -155 -98 -264t-276 -109t-286.5 140t-108.5 334q0 350 280 490l84 -84q-228 -113 -228 -387q0 -136 72 -252t203 -116q222 0 227 286l4 212q3 137 91 239
t243 102q206 0 309.5 -145t103.5 -352z" />
    <glyph glyph-name="k4" unicode="&#xd18;" horiz-adv-x="2268" 
d="M1037 315h-415v68q128 60 128 215q0 96 -72.5 160.5t-170.5 64.5q-99 0 -171.5 -62t-72.5 -158q0 -138 124 -197l-57 -101q-185 91 -185 298q0 145 108 242.5t255 97.5q149 0 257 -97.5t108 -230.5t-52 -190h216v133q0 177 124 281t308 104t301.5 -103t117.5 -282v-243
h-708v-204h951v809h135v-920h-1229v315zM1750 425v96q0 133 -74 217.5t-206 84.5q-133 0 -210.5 -84.5t-77.5 -217.5v-96h568z" />
    <glyph glyph-name="ng" unicode="&#xd19;" horiz-adv-x="1691" 
d="M1689 249q0 -121 -88.5 -195.5t-201.5 -74.5t-202 24v122q32 -26 180 -26q73 0 126 40.5t53 116.5q0 152 -189 152h-150v120h148q191 0 191 136q0 80 -78.5 119.5t-178.5 39.5q-101 0 -191 -52.5t-90 -148.5v-622h-136v622q0 91 -84 146t-178 55q-168 0 -261 -118
t-93 -265q42 118 204 118q126 0 201 -81t75 -204t-83 -208.5t-215 -85.5q-160 0 -232.5 124.5t-72.5 292.5q0 229 125 388t345 159t341 -132q120 132 357 132q139 0 258.5 -70.5t119.5 -204.5q0 -63 -36.5 -119.5t-99.5 -74.5q136 -44 136 -225zM560.5 149.5
q44.5 50.5 44.5 119.5t-40.5 121.5t-111.5 52.5t-114 -51.5t-43 -121.5q0 -68 46 -119.5t110 -51.5t108.5 50.5z" />
    <glyph glyph-name="ch1" unicode="&#xd1a;" horiz-adv-x="1452" 
d="M1457 0h-1310v113h553q83 0 144.5 62t61.5 137q0 77 -56 131t-136 54q-78 0 -136 -54t-58 -133q0 -47 23 -86l-133 -5q-15 53 -15 97q0 125 95.5 215.5t227.5 90.5t224 -90.5t92 -219.5q0 -127 -94 -199h382v807h135v-920z" />
    <glyph glyph-name="ch2" unicode="&#xd1b;" horiz-adv-x="2162" 
d="M719 624q131 0 220.5 -88t89.5 -223t-91 -198h266q-76 114 -76 304q0 231 150 377.5t366 146.5t366 -164t150 -390q0 -168 -93 -289t-243 -121t-240 103.5t-90 255.5t91 263.5t253 111.5q32 0 89 -12q-101 122 -277 122t-290.5 -113t-114.5 -303q0 -289 199 -320v-87
h-1297v115h553q83 0 147.5 61t64.5 139q0 79 -58 135.5t-139 56.5q-82 0 -142 -56.5t-60 -138.5q0 -48 25 -88l-128 -3q-14 40 -14 91q0 131 96 221.5t227 90.5zM2034 354q0 103 -46 202q-56 39 -154 39t-160 -74t-62 -175q0 -100 55 -171.5t147 -71.5t156 74t64 177z" />
    <glyph glyph-name="ch3" unicode="&#xd1c;" horiz-adv-x="1409" 
d="M1310 396q106 -72 106 -178t-69 -172.5t-159 -66.5t-153.5 42.5t-80.5 108.5q-131 -151 -445 -151q-167 0 -259.5 34t-92.5 164q0 224 420 224h370q131 0 232 56t101 158q0 103 -54 155.5t-145 52.5q-194 0 -194 -182v-198h-135v188q0 192 -248 192q-162 0 -197 -58
q35 19 61 19q80 0 125.5 -54t45.5 -135t-57 -137.5t-140 -56.5q-197 0 -197 223q0 157 105 238t262 81q213 0 304 -127q72 127 285 127q148 0 230.5 -90.5t82.5 -232.5t-104 -224zM1297 211q-1 106 -119 106t-118 -106q0 -49 35 -82t85 -33q49 0 83 33t34 82zM436 603
q0 42 -26 71t-67 29t-69 -28t-28 -70q0 -101 95 -101t95 99zM947 291h-276q-388 0 -388 -108q0 -87 243 -87q325 0 421 195z" />
    <glyph glyph-name="ch4" unicode="&#xd1d;" horiz-adv-x="2588" 
d="M2591 455q0 -199 -98.5 -336.5t-283.5 -137.5q-147 0 -228 127q-32 -56 -98 -92.5t-138 -36.5q-162 0 -279 95t-117 245v192q0 131 -96 221.5t-225 90.5q-46 0 -106 -19q94 -82 145 -204.5t51 -221.5q0 -146 -90 -272.5t-224 -126.5t-223 117.5t-89 281.5q0 258 206 421
q-67 24 -112 24q-136 0 -223.5 -115t-87.5 -270q0 -246 177 -377l-84 -85q-223 155 -223 474q0 185 123 339t361 154q101 0 182 -63q84 63 252 63t291 -104t123 -269v-201q0 -113 74 -190.5t191 -77.5q79 0 122 70t43 164v585h135v-585q0 -86 43 -160t115 -74q265 0 265 347
q0 291 -214 410l87 85q253 -155 253 -488zM971 378q0 207 -167 361q-178 -129 -178 -361q0 -120 48 -202t130 -82q80 0 123.5 88t43.5 196z" />
    <glyph glyph-name="nj" unicode="&#xd1e;" horiz-adv-x="2260" 
d="M1210 358q0 272 207 441q-62 24 -111 24q-99 0 -177 -50.5t-78 -153.5v-619h-153v619q0 94 -87.5 149t-190.5 55q-153 0 -249 -119t-105 -263q44 117 206 117q124 0 199 -80.5t75 -203.5t-80 -209t-208 -86q-160 0 -237.5 128t-77.5 289q0 231 129 389t356 158
q228 0 348 -132q113 132 354 132q99 0 204 -63q113 63 258 63q219 0 345.5 -152t126.5 -338q0 -322 -235 -476l-77 78q182 126 182 386q0 152 -106.5 267t-256.5 115q-59 0 -114 -19q96 -77 151 -201t55 -222q0 -157 -84.5 -279.5t-240.5 -122.5t-242 111.5t-86 267.5z
M1724 381q0 194 -190 361q-197 -139 -197 -361q0 -122 53 -204.5t144 -82.5q89 0 139.5 90t50.5 197zM610 271q0 72 -42 124.5t-115 52.5q-74 0 -117 -51.5t-43 -123.5q0 -71 43.5 -123.5t115.5 -52.5t115 51.5t43 122.5z" />
    <glyph glyph-name="t1" unicode="&#xd1f;" horiz-adv-x="987" 
d="M663 530q147 0 236.5 -62t89.5 -204q0 -141 -117.5 -214t-286.5 -73q-290 0 -440 158l84 90q112 -125 352 -125q111 0 192.5 42t81.5 127q0 132 -204 132h-167q-152 0 -245.5 68t-93.5 184q0 144 115 217t293 73q290 0 436 -156l-82 -90q-117 126 -354 126
q-109 0 -189.5 -42.5t-80.5 -127.5q0 -123 204 -123h176z" />
    <glyph glyph-name="t2" unicode="&#xd20;" horiz-adv-x="1119" 
d="M977.5 803.5q142.5 -139.5 142.5 -339.5t-142.5 -342.5t-345.5 -142.5t-345 142.5t-142 342.5t142 339.5t345 139.5t345.5 -139.5zM889 209q106 107 106 255t-106.5 253.5t-256.5 105.5t-256.5 -105.5t-106.5 -253.5t106.5 -254.5t256.5 -106.5t257 106z" />
    <glyph glyph-name="t3" unicode="&#xd21;" horiz-adv-x="2174" 
d="M2179 460q0 -199 -112.5 -340t-310.5 -141t-295 149q-96 -149 -283 -149t-294 110.5t-107 274.5v176q0 112 -61 197.5t-167 85.5q-133 0 -209.5 -112.5t-76.5 -264.5q0 -263 222 -377l-69 -96q-273 148 -273 475q0 207 106.5 351t293.5 144t279.5 -127.5t92.5 -313.5
v-142q0 -110 62.5 -183t173.5 -73t173.5 65.5t62.5 166.5v584h142v-584q0 -94 70.5 -163t168.5 -69q135 0 206 105.5t71 246.5q0 267 -211 386l69 101q276 -148 276 -483z" />
    <glyph glyph-name="t4" unicode="&#xd22;" horiz-adv-x="2237" 
d="M2246 532q0 -222 -132 -388.5t-366 -166.5t-353 140q-105 -137 -282 -137t-270 104.5t-93 280.5q0 230 -16 295q-39 163 -191 163q-151 0 -215.5 -114.5t-64.5 -261.5q0 -256 213 -370l-59 -97q-272 144 -272 469q0 210 95.5 352t302.5 142q237 0 300 -194
q32 -98 32 -389q0 -108 61.5 -181.5t162.5 -73.5t164.5 75t63.5 171v569h136v-599q0 -107 95.5 -164t211.5 -57q155 0 242 111.5t99 273.5q-24 -56 -86 -90.5t-128 -34.5q-120 0 -195 85t-75 209t83.5 206.5t209.5 82.5q163 0 244.5 -121.5t81.5 -289.5zM2084 653
q0 71 -48 120.5t-118 49.5t-114.5 -48.5t-44.5 -119.5q0 -70 44 -123.5t113 -53.5q70 0 119 51.5t49 123.5z" />
    <glyph glyph-name="nh" unicode="&#xd23;" horiz-adv-x="2232" 
d="M2237 471q0 -347 -273 -494l-66 104q209 110 209 394q0 148 -78.5 248t-218.5 100q-187 0 -187 -229v-594h-136v594q0 111 -64.5 170.5t-164.5 59.5t-162.5 -58.5t-62.5 -171.5v-594h-146v594q0 229 -279 229q-145 0 -240 -117.5t-105 -266.5q45 118 200 118
q117 0 191 -81t74 -203t-78.5 -209t-201.5 -87q-305 0 -305 418q0 233 135 390.5t352 157.5q218 0 327 -128q95 128 294 128q198 0 302 -126q91 126 275 126q190 0 299.5 -135t109.5 -337zM556 149q42 52 42 122t-42 123t-112 53t-112.5 -50.5t-42.5 -122.5q0 -71 42.5 -124
t112.5 -53t112 52z" />
    <glyph glyph-name="th1" unicode="&#xd24;" horiz-adv-x="1609" 
d="M1607 453q0 -319 -235 -476l-79 80q184 128 184 384q0 152 -106.5 267t-259.5 115q-34 0 -98 -16q96 -77 145 -206t49 -237q0 -149 -93.5 -267t-243.5 -118t-235.5 110.5t-85.5 274.5q0 275 204 438q-62 21 -126 21q-148 0 -252.5 -110t-104.5 -272q0 -258 190 -386
l-82 -78q-235 154 -235 476q0 189 137.5 339.5t392.5 150.5q131 0 216 -70q92 70 246 70q220 0 346 -152t126 -338zM877 94q90 0 139 82.5t49 191.5t-53 212t-135 159q-91 -61 -143.5 -165t-52.5 -210q0 -270 196 -270z" />
    <glyph glyph-name="th2" unicode="&#xd25;" horiz-adv-x="1387" 
d="M1387 0h-1244v920h136v-807h289v429q0 166 119.5 283.5t290.5 117.5t290 -112.5t119 -276.5v-554zM1252 113v433q0 113 -81.5 195t-194.5 82t-191.5 -83t-78.5 -196v-431h546z" />
    <glyph glyph-name="th3" unicode="&#xd26;" horiz-adv-x="1036" 
d="M1038 249q0 -121 -88.5 -195.5t-217.5 -74.5t-185 24v122q40 -26 179 -26q74 0 127 40.5t53 116.5q0 149 -190 149h-152v124h150q192 0 192 134q0 78 -79 119t-165 41q-186 0 -291 -120.5t-105 -299.5t96 -388l-118 -36q-100 216 -100 443q0 226 135 373.5t381 147.5
q147 0 262.5 -70.5t115.5 -205.5q0 -63 -38 -123.5t-92 -77.5q130 -54 130 -217z" />
    <glyph glyph-name="th4" unicode="&#xd27;" horiz-adv-x="1562" 
d="M1563 461q0 -201 -119.5 -341t-315.5 -140t-280 139q-89 -142 -278 -142t-307 140t-118 334q0 154 73.5 288.5t219.5 203.5l63 -104q-221 -105 -221 -397q0 -143 83.5 -240t226.5 -97q81 0 132.5 71t51.5 152v592h142v-592q0 -88 60 -155.5t152 -67.5q135 0 217.5 105
t82.5 241q0 285 -224 388l69 104q145 -67 217.5 -197t72.5 -285z" />
    <glyph glyph-name="n1" unicode="&#xd28;" horiz-adv-x="1562" 
d="M862 813q74 130 277 130q191 0 307.5 -138t116.5 -315t-72.5 -310.5t-217.5 -202.5l-64 100q221 109 221 403q0 145 -83.5 244t-226.5 99q-86 0 -136.5 -64t-50.5 -153v-606h-139v606q0 89 -60.5 153t-151.5 64q-138 0 -218.5 -104t-80.5 -248q0 -293 230 -399l-75 -95
q-143 69 -218 200.5t-75 285.5q0 196 120 338t315 142q197 0 282 -130z" />
    <glyph glyph-name="n2" unicode="&#xd29;" horiz-adv-x="1668" 
d="M1662 384q0 -150 -85.5 -270t-233.5 -120l-51 116q112 0 174 78q58 88 58 198q0 439 -322 439q-102 0 -155 -72.5t-53 -158.5v-592h-136v592q0 90 -67 160.5t-159 70.5q-158 0 -263 -112.5t-115 -272.5q22 61 89 94t143 33q124 0 212 -82t88 -212t-90 -209t-244 -79
t-240 118.5t-86 298.5q0 253 149 398t356 145t293 -132q90 132 280 132q458 0 458 -561zM582 153q48 48 48 119.5t-48 124.5t-119 53t-123 -51t-52 -123t52 -121.5t123 -49.5t119 48z" />
    <glyph glyph-name="p1" unicode="&#xd2a;" horiz-adv-x="1440" 
d="M1440 0h-818l-3 79q124 63 124 203q0 96 -70.5 160t-166.5 64t-167 -63t-71 -153q0 -138 121 -194l-57 -103q-187 93 -187 297q0 144 108 242.5t257 98.5t257 -96.5t108 -217.5t-52 -207h485v810h132v-920z" />
    <glyph glyph-name="p2" unicode="&#xd2b;" horiz-adv-x="1924" 
d="M1927 0h-1305v73q128 67 128 215q0 95 -71 161.5t-171 66.5t-172.5 -63.5t-72.5 -163.5q0 -140 126 -200l-56 -94q-188 94 -188 298q0 144 108.5 242t260.5 98t254 -96.5t102 -232.5t-49 -191h307v424q0 173 111 289.5t285 116.5t288.5 -115t114.5 -280v-548zM1801 113
v428q0 118 -78 200.5t-191 82.5t-190.5 -85t-77.5 -198v-428h537z" />
    <glyph glyph-name="p3" unicode="&#xd2c;" horiz-adv-x="2023" 
d="M2028 0h-717v82q96 68 150 179.5t54 234.5t-72 225t-202 102q-90 0 -141.5 -61t-51.5 -155v-607h-141v619q0 99 -87.5 151.5t-200.5 52.5q-154 0 -245 -110.5t-113 -272.5q42 118 201 118q124 0 193.5 -82t69.5 -206t-80 -207.5t-207 -83.5q-295 0 -295 399
q0 241 132.5 403t360.5 162t337 -122q116 122 254 122q218 0 320 -139t102 -342q0 -204 -120 -349h364v807h135v-920zM552 148.5q41 47.5 41 119.5t-39.5 123.5t-110.5 51.5q-72 0 -113.5 -50.5t-41.5 -122.5t40.5 -120.5t112.5 -48.5q70 0 111 47.5z" />
    <glyph glyph-name="p4" unicode="&#xd2d;" horiz-adv-x="1082" 
d="M660 633l201 -3q76 6 76 59q0 79 -87.5 106.5t-181.5 27.5q-190 0 -294.5 -118.5t-104.5 -315.5q0 -146 81 -380l-120 -42q-86 222 -86 461t142 377t393 138q401 0 401 -253q0 -77 -64 -135t-142 -58l-184 9q-82 0 -82 -67q0 -68 84 -68q180 6 184 6q94 0 150 -52.5
t56 -139.5q0 -144 -90.5 -176t-256.5 -32t-265 36l-12 136q103 -52 300 -52q94 0 136.5 10t42.5 66q0 77 -125 77h-155q-82 0 -137 52.5t-55 138.5q0 87 56 139.5t139 52.5z" />
    <glyph glyph-name="m1" unicode="&#xd2e;" horiz-adv-x="1056" 
d="M1057 0h-914v425q0 518 462 518q452 0 452 -508v-435zM929 113v322q0 349 -265 389q103 -50 103 -219q0 -102 -72.5 -244t-215.5 -248h450zM624 615q0 206 -120 206q-79 0 -157.5 -103t-78.5 -283v-312q356 227 356 492z" />
    <glyph glyph-name="y1" unicode="&#xd2f;" horiz-adv-x="1722" 
d="M1722 513q0 -224 -146 -379.5t-412 -155.5q-140 0 -197 56q-68 -52 -219 -52q-270 0 -435.5 155t-165.5 400q0 178 84.5 292t219.5 114q167 0 244 -132q94 132 305 132q147 0 246 -116.5t99 -279.5q0 -287 -228 -447q40 -8 84 -8q158 0 273 120t115 318t-145 328l103 85
q175 -167 175 -430zM1140 298q69 102 69 226t-59 211t-175 87t-172 -87.5t-56 -209.5q0 -256 225 -374q99 45 168 147zM829 102q-213 169 -213 445t-165 276q-74 0 -122.5 -89.5t-48.5 -196.5q0 -191 129 -318t334 -127q48 0 86 10z" />
    <glyph glyph-name="r3" unicode="&#xd30;" horiz-adv-x="1205" 
d="M690 943q243 0 379.5 -152.5t136.5 -352.5t-108.5 -329.5t-264.5 -129.5q-145 0 -228.5 98t-83.5 253q0 186 105 282.5t260 96.5q44 0 91 -12q-99 125 -279 125t-303.5 -114.5t-123.5 -315.5t166 -328l-86 -83q-205 160 -205 415q0 256 150.5 401.5t393.5 145.5z
M1034 554q-33 24 -138 24t-174.5 -68.5t-69.5 -162.5q0 -95 46 -168t144 -73t159.5 73t61.5 190q0 116 -29 185z" />
    <glyph glyph-name="rh" unicode="&#xd31;" horiz-adv-x="1114" 
d="M1114 439q0 -155 -82.5 -277t-232.5 -183l-54 97q243 91 243 363q0 160 -104.5 272t-259.5 112t-257 -112t-102 -272q0 -274 246 -363l-56 -97q-150 59 -230 182t-80 278q0 214 139.5 359t349.5 145t345 -144t135 -360z" />
    <glyph glyph-name="l3" unicode="&#xd32;" horiz-adv-x="1438" 
d="M1440 0h-1295v561q0 162 126.5 272t308.5 110t299 -106.5t117 -275.5v-263h-713v-183h1023v805h134v-920zM858 413v110q0 129 -75 214.5t-205 85.5t-211 -81t-81 -219v-110h572z" />
    <glyph glyph-name="lh" unicode="&#xd33;" horiz-adv-x="1196" 
d="M1203 253q0 -98 -79.5 -175.5t-217.5 -77.5h-445q-61 0 -110.5 -31.5t-49.5 -87.5t49 -87t111 -31h715v-115h-737q-114 0 -190 60t-76 169q0 235 271 235h432q187 0 187 142q0 141 -152 141h-69v125h69q147 0 147 121q0 98 -132.5 140t-269.5 42t-253 -69.5t-144 -200.5
q74 93 180 93t179.5 -70t73.5 -177t-76 -171t-202 -64t-199.5 93.5t-73.5 236.5q0 222 157 335.5t370 113.5t371 -70t158 -232q0 -133 -117 -187q123 -49 123 -201zM514.5 311.5q34.5 34.5 34.5 88.5t-36 89.5t-91 35.5t-93 -33t-38 -88t38.5 -91t94.5 -36t90.5 34.5z" />
    <glyph glyph-name="zh" unicode="&#xd34;" horiz-adv-x="1076" 
d="M561.5 853.5q88.5 89.5 228.5 89.5t214 -88.5t74 -208.5t-91 -216t-256 -126q27 -71 27 -126q0 -90 -75 -145t-180 -55q-185 0 -268 137l73 93q80 -115 183 -115q56 0 98.5 27t42.5 66t-24 93q-34 -5 -68 -5q-170 0 -282 106.5t-112 259.5q0 179 150 303l84 -70
q-117 -69 -117 -213q0 -151 90.5 -208.5t179.5 -57.5q12 0 24 1q-84 123 -84 246t88.5 212.5zM950 651q0 73 -42 122.5t-120 49.5t-127.5 -54t-49.5 -128q0 -128 73 -226q266 54 266 236z" />
    <glyph glyph-name="v1" unicode="&#xd35;" horiz-adv-x="1478" 
d="M1481 0h-720v98q218 120 218 357q0 157 -103 262.5t-259 105.5t-256 -108t-100 -268q0 -271 244 -361l-59 -103q-305 127 -305 467q0 211 141 352t349 141t340 -137.5t132 -362.5t-134 -330h376v807h136v-920z" />
    <glyph glyph-name="z1" unicode="&#xd36;" horiz-adv-x="1699" 
d="M1701 384q0 -165 -100 -285t-259 -120t-241.5 107.5t-82.5 259.5t103 257.5t248 105.5q57 0 106 -12q-107 126 -293 126q-110 0 -194.5 -89t-84.5 -210v-194q0 -153 -92.5 -252t-272 -99t-286.5 140t-107 334q0 342 275 490l70 -101q-209 -119 -209 -370
q0 -133 73 -250.5t199.5 -117.5t166.5 80t40 210v162q0 162 123 274.5t283 112.5q255 0 395 -156.5t140 -402.5zM1342 104q98 0 160 76.5t62 229.5q0 87 -28 144q-37 24 -144 24t-173 -65t-66 -156q0 -253 189 -253z" />
    <glyph glyph-name="sh" unicode="&#xd37;" horiz-adv-x="1850" 
d="M1850 0h-1229v73q129 67 129 215q0 95 -71 161.5t-171 66.5t-173 -63.5t-73 -159.5q0 -141 124 -200l-62 -98q-179 96 -179 298q0 144 108 242t255 98q148 0 257 -99.5t109 -228.5t-54 -192h425v218q-155 23 -266.5 107.5t-111.5 214.5t76.5 210t184.5 80q260 0 260 -277
v-211q317 20 386 465h76v-920zM1725 113v391q-32 -57 -139 -115t-198 -58v-218h337zM1245 692q0 58 -41.5 95t-90.5 37t-86 -45t-37 -117.5t72.5 -133.5t182.5 -71v235z" />
    <glyph glyph-name="s1" unicode="&#xd38;" 
d="M2170 497q0 -207 -93 -339.5t-290 -132.5t-295.5 117.5t-98.5 300.5v145q0 235 -248 235q-204 0 -204 -218v-563h-146v563q0 105 -69 161.5t-173 56.5q-136 0 -208 -100.5t-72 -232.5q0 -274 217 -375l-75 -96q-272 136 -272 468q0 186 111.5 321t315.5 135t298 -122
q89 122 274 122t294.5 -100t109.5 -268v-165q0 -112 60 -188.5t186 -76.5t188.5 102t62.5 239t-61 230t-178 138l72 89q143 -60 218.5 -178t75.5 -268z" />
    <glyph glyph-name="h1" unicode="&#xd39;" horiz-adv-x="1933" 
d="M1934 454q0 -339 -305 -466l-56 105q221 103 221 361q0 153 -89.5 261t-233.5 108t-240 -99.5t-96 -254.5q0 -111 49 -230t143 -155v-84h-708v73q121 54 121 212q0 95 -69 160.5t-166 65.5t-167.5 -61.5t-70.5 -157.5q0 -142 119 -206l-56 -101q-185 94 -185 307
q0 142 108.5 244t260.5 102t251.5 -99t99.5 -235t-49 -192h293q-111 138 -111 352t137.5 346.5t334.5 132.5t330.5 -142.5t133.5 -346.5z" />
    <glyph glyph-name="rh_half" unicode="&#xd3a;" horiz-adv-x="1387" 
d="M1387 106v-106h-591v-328h-141v328h-486l530 924h154l-464 -818h998z" />
    <glyph glyph-name="avagraha" unicode="&#xd3d;" horiz-adv-x="1195" 
d="M1250 1093l-120 -51q-14 112 -125 112q-119 0 -140 -140l-92 -547l160 9v-130l-181 -10l-111 -720q-37 -251 -264 -251q-198 0 -253 190l121 51q12 -112 121 -112q122 0 145 139l108 696l-130 -7v129l152 7l93 574q39 250 263 250q199 0 253 -189z" />
    <glyph glyph-name="a2" unicode="&#xd3e;" horiz-adv-x="848" 
d="M145 589q3 151 92 252.5t261 101.5q173 0 262 -133.5t89 -342.5t-90 -348.5t-279 -139.5q-155 0 -243.5 91.5t-88.5 276.5h133q0 -96 55 -170.5t144 -74.5q231 0 231 360q0 361 -219 361q-92 0 -152.5 -67.5t-60.5 -166.5h-134z" />
    <glyph glyph-name="i1" unicode="&#xd3f;" horiz-adv-x="323" 
d="M325 0h-130v1106q0 146 -137 146q-57 0 -94.5 -45t-37.5 -106.5t18 -95.5h-135q-10 57 -10 103q0 116 70.5 191t188.5 75t192.5 -67t74.5 -184v-1123z" />
    <glyph glyph-name="i2" unicode="&#xd40;" horiz-adv-x="324" 
d="M329 0h-131v1076q0 73 -36.5 123t-107.5 50h-11q60 -54 60 -122t-51.5 -120.5t-125.5 -52.5t-128 55t-54 131q0 112 86 171.5t203 59.5q296 0 296 -285v-1086zM-72 1064q63 0 63 75t-63 75q-64 0 -64 -75t64 -75z" />
    <glyph glyph-name="u1" unicode="&#xd41;" horiz-adv-x="639" 
d="M445 -3q87 -17 135 -86.5t48 -171.5t-70.5 -172t-179.5 -70t-182.5 67.5t-73.5 179.5t64 184.5t140 72.5q71 228 71 442q0 381 -245 382l17 118q170 -24 258 -136t88 -307q0 -307 -70 -503zM513 -248q0 59 -39.5 105t-103.5 46q-63 0 -104 -45.5t-41 -105.5
q0 -149 146 -149q142 0 142 149z" />
    <glyph glyph-name="u2" unicode="&#xd42;" horiz-adv-x="639" 
d="M445 -3q85 -17 134 -86.5t49 -171.5t-72.5 -172t-179.5 -70t-180.5 67.5t-73.5 179.5t65.5 184.5t138.5 72.5q63 187 63 462q0 354 -242 361l14 119q176 -15 263 -128t87 -309q0 -315 -66 -509zM501 -186q-42 91 -137 91t-128 -98q40 -42 130 -42q88 0 135 49zM515 -240
q-70 -53 -143 -53q-74 0 -149 38q0 -54 39.5 -98t107.5 -44t106.5 44.5t38.5 112.5z" />
    <glyph glyph-name="r1" unicode="&#xd43;" horiz-adv-x="777" 
d="M769 -180q0 -174 -123 -257.5t-267 -83.5t-221 79.5t-77 192.5t69.5 182t175.5 69t170.5 -75t64.5 -182t-80 -158q178 51 178 230q0 112 -193.5 315t-193.5 625q0 137 8 163h128q-2 -120 -2 -169q0 -219 36.5 -336.5t144.5 -244t145 -195.5t37 -155zM445 -251
q0 66 -34.5 111.5t-93.5 45.5q-125 0 -125 -157q0 -64 38 -110.5t89 -46.5q126 0 126 157z" />
    <glyph glyph-name="r2" unicode="&#xd44;" horiz-adv-x="1454" 
d="M1009 -194q0 -119 -112.5 -175.5t-341.5 -56.5q-228 0 -350 54t-122 131t110.5 123.5t277.5 46.5q168 0 270.5 -51t102.5 -123q0 -73 -127 -108q147 35 147 157q0 76 -278.5 301t-278.5 647q0 137 8 163h128q-2 -120 -2 -169q0 -219 36.5 -336.5t235 -284.5t247.5 -214
t49 -105zM660 -243q0 45 -54.5 76t-148.5 31q-198 0 -198 -107q0 -43 60.5 -74.5t140.5 -31.5q200 0 200 106zM542 -197q21 -16 21 -39q0 -24 -16.5 -43.5t-39.5 -19.5l-15 38q12 0 22 8t10 15q0 21 -37 21q-18 0 -18 -10v-69h-40v69l-22 10q-35 0 -35 -21q0 -8 9.5 -16.5
t21.5 -11.5l-15 -34q-56 17 -56 52t21.5 51t49.5 16q29 0 46 -12q17 12 44 12q28 0 49 -16z" />
    <glyph glyph-name="e1" unicode="&#xd46;" horiz-adv-x="1184" 
d="M1202 429q0 -305 -283 -447l-71 99q214 108 214 348q0 168 -106 281t-278 113t-283.5 -109.5t-122.5 -273.5q19 59 89.5 93t142.5 34q127 0 213.5 -86.5t86.5 -213.5t-89 -207.5t-228 -80.5q-177 0 -259.5 119t-82.5 298q0 232 144.5 389.5t384.5 157.5t384 -146
t144 -368zM602 148.5q47 49.5 47 119.5t-47 126t-120 56q-74 0 -124.5 -55t-50.5 -125t50.5 -120.5t124.5 -50.5q73 0 120 49.5z" />
    <glyph glyph-name="e2" unicode="&#xd47;" horiz-adv-x="871" 
d="M901 223q0 -120 -92 -182.5t-213 -62.5q-220 0 -337 134t-117 346t117 348.5t333 136.5q126 0 217.5 -65t91.5 -185q0 -86 -57 -137.5t-138 -51.5q-119 0 -162.5 63.5t-43.5 127.5q0 63 50 126q-130 -2 -198 -114t-68 -253t71 -247t199 -106q-56 61 -56 136t59 125.5
t145 50.5q85 0 142 -52t57 -138zM706 624q69 0 69 74q0 70 -73 71q-74 -1 -74 -73t78 -72zM775 223q-1 77 -73 77t-72 -77q0 -76 72 -76t73 76z" />
    <glyph glyph-name="ai1" unicode="&#xd48;" horiz-adv-x="2386" 
d="M2399 429q0 -305 -283 -447l-71 99q214 108 214 348q0 168 -106 281t-278 113t-283.5 -109.5t-122.5 -273.5q19 59 89.5 93t142.5 34q127 0 213.5 -86.5t86.5 -213.5t-89 -207.5t-228 -80.5q-177 0 -259.5 119t-82.5 298q0 232 144 389.5t384 157.5t384.5 -146
t144.5 -368zM1799 148.5q47 49.5 47 119.5t-47 126t-120 56q-74 0 -124.5 -55t-50.5 -125t50.5 -120.5t124.5 -50.5q73 0 120 49.5zM1202 429q0 -305 -283 -447l-71 99q214 108 214 348q0 168 -106 281t-278 113t-283.5 -109.5t-122.5 -273.5q19 59 89.5 93t142.5 34
q127 0 213.5 -86.5t86.5 -213.5t-89 -207.5t-228 -80.5q-177 0 -259.5 119t-82.5 298q0 232 144.5 389.5t384.5 157.5t384 -146t144 -368zM602 148.5q47 49.5 47 119.5t-47 126t-120 56q-74 0 -124.5 -55t-50.5 -125t50.5 -120.5t124.5 -50.5q73 0 120 49.5z" />
    <glyph glyph-name="o1" unicode="&#xd4a;" horiz-adv-x="2758" 
d="M2760 199q0 -146 -106 -252.5t-256 -106.5h-1852q-150 0 -256 106.5t-106 252.5v825q0 146 106 252t256 106h1852q150 0 256 -106t106 -252v-825zM2654 311v606q0 150 -105.5 256t-253.5 106h-1646q-148 0 -253.5 -106t-105.5 -256v-606q0 -148 105.5 -253.5
t253.5 -105.5h1646q148 0 253.5 105.5t105.5 253.5zM2497 600q0 -467 -323 -467q-304 0 -304 307h74q20 -100 52 -141.5t123 -41.5q127 0 174 117q30 76 30 228q0 342 -180 342q-113 0 -155 -70q-30 -45 -44 -171h-74v5q0 168 61.5 250t220.5 82q345 0 345 -440zM1779 506
h-211v101h211v-101zM1484 583q0 -251 -284 -462l-114 45q210 154 210 385q0 157 -113.5 269t-277 112t-274.5 -113t-132 -283l7 -7q103 143 241 143q111 0 190.5 -86.5t79.5 -200.5t-73.5 -183t-191.5 -69q-152 0 -244 108q-80 103 -80 261q0 222 149.5 380t363.5 158
t371 -123q172 -132 172 -334zM818 293q49 47 49 114.5t-44.5 118t-114.5 50.5q-71 0 -120.5 -44.5t-49.5 -113.5t50.5 -120.5t115.5 -51.5t114 47z" />
    <glyph glyph-name="o2" unicode="&#xd4b;" horiz-adv-x="2537" 
d="M2540 199q0 -146 -105.5 -252.5t-252.5 -106.5h-1637q-150 0 -255.5 106.5t-105.5 252.5v825q0 146 105.5 252t255.5 106h1637q147 0 252.5 -106t105.5 -252v-825zM2454 281v636q0 150 -105.5 256t-255.5 106h-1438q-147 0 -253 -106t-106 -256v-636q0 -148 106 -253.5
t253 -105.5h1438q150 0 255.5 105.5t105.5 253.5zM2252 598q0 -467 -326 -467q-300 0 -300 302v5h71q20 -101 47 -136q39 -45 130 -45q204 0 204 342.5t-182 342.5q-110 0 -155 -68q-24 -45 -44 -173h-71v7q0 166 56 241q64 91 227 91q343 0 343 -442zM1535 506h-214v99h214
v-99zM1232 374q0 -120 -127 -187q-101 -49 -239 -49q-208 0 -320 124t-112 333t114 328.5t318 119.5q136 0 251 -56.5t115 -177.5q0 -177 -169 -177q-84 0 -142.5 43.5t-58.5 139t68 146.5q-31 16 -73 16q-258 0 -258 -386t258 -386q42 0 73 17q-68 40 -68 152
q0 76 60 120.5t137 44.5t125 -45.5t48 -119.5zM1063 698q99 0 99 113.5t-113 135.5q-70 -33 -70 -141t84 -108zM1162 379q0 40 -29.5 67t-69.5 27q-84 0 -84 -101t70 -138q113 25 113 145z" />
    <glyph glyph-name="uni0D4C" unicode="&#xd4c;" horiz-adv-x="2758" 
d="M3178 197q0 -146 -106 -252.5t-256 -106.5l-2270 2q-150 0 -256 106.5t-106 252.5v825q0 146 106 252t256 106l2270 -2q150 0 256 -106t106 -252v-825zM3072 309v606q0 150 -105.5 256t-253.5 106l-2064 2q-148 0 -253.5 -106t-105.5 -256v-606q0 -148 105.5 -253.5
t253.5 -105.5l2064 -2q148 0 253.5 105.5t105.5 253.5zM1779 506h-211v101h211v-101zM2850.5 1038.5q101.5 -123.5 101.5 -328.5t-105.5 -358.5t-351.5 -153.5q-171 0 -262.5 89t-91.5 193h133q34 -160 214 -160q319 0 319 373q0 349 -233 349q-67 0 -116 -53t-49 -126v-165
l-148 -3v150q0 197 -152 197q-90 0 -129.5 -62.5t-39.5 -197.5q0 -22 4 -106h-124q-12 96 -12 122q0 364 322 364q142 0 208 -113q46 64 97 88.5t154 24.5q160 0 261.5 -123.5zM1463 657q0 -305 -283 -447l-71 99q214 108 214 348q0 168 -106 281t-278 113t-283.5 -109.5
t-122.5 -273.5q19 59 89.5 93t142.5 34q127 0 213.5 -86.5t86.5 -213.5t-89 -207.5t-228 -80.5q-177 0 -259.5 119t-82.5 298q0 232 144.5 389.5t384.5 157.5t384 -146t144 -368zM863 376.5q47 49.5 47 119.5t-47 126t-120 56q-74 0 -124.5 -55t-50.5 -125t50.5 -120.5
t124.5 -50.5q73 0 120 49.5z" />
    <glyph glyph-name="xx" unicode="&#xd4d;" horiz-adv-x="318" 
d="M311 1260q0 -118 -78.5 -200.5t-185.5 -82.5q-113 0 -192.5 82.5t-79.5 200.5q0 21 3 35h122q-2 -11 -2 -35q0 -69 43 -114.5t102 -45.5t102 45.5t43 114.5q0 17 -2 35h122q3 -14 3 -35z" />
    <glyph glyph-name="dotreph" unicode="&#xd4e;" horiz-adv-x="0" 
d="M-673 1231q45 44 77 44t80 -44v-54q-31 -93 -78 -93q-44 0 -79 93v54z" />
    <glyph glyph-name="au2" unicode="&#xd57;" horiz-adv-x="1225" 
d="M1128.5 819.5q101.5 -123.5 101.5 -328.5t-105.5 -358.5t-351.5 -153.5q-171 0 -262.5 89t-91.5 193h133q34 -160 214 -160q319 0 319 373q0 349 -233 349q-67 0 -116 -53t-49 -126v-165l-148 -3v150q0 197 -152 197q-90 0 -129.5 -62.5t-39.5 -197.5q0 -22 4 -106h-124
q-12 96 -12 122q0 364 322 364q142 0 208 -113q46 64 97 88.5t154 24.5q160 0 261.5 -123.5z" />
    <glyph glyph-name="ml_rr" unicode="&#xd60;" horiz-adv-x="1454" 
d="M948 867q80 76 211 76t215.5 -109.5t84.5 -255.5t-73 -261t-194 -130v-13q234 -41 234 -247q0 -173 -190.5 -245.5t-438.5 -72.5q-244 0 -428 71t-184 247q0 206 228 247v8q-136 27 -203 137.5t-67 260.5t81 256.5t236 106.5q115 0 191 -77.5t76 -195.5t-72 -195
t-183 -77q-66 0 -124.5 39t-79.5 104q0 -307 532 -307t533 307q-17 -67 -77.5 -105t-129.5 -38q-108 0 -183.5 80t-75.5 196q1 116 81 193zM1288 673q0 61 -39 105.5t-107 44.5t-108.5 -44.5t-40.5 -104.5t42.5 -107t108.5 -47t105 46t39 107zM601 673q0 61 -38.5 105.5
t-106.5 44.5t-109.5 -44.5t-41.5 -104.5t42 -107t108 -47t106 46t40 107zM1283 -73q0 176 -479 176t-479 -176q0 -185 472 -185q486 0 486 185zM1061.5 9q57.5 -33 57.5 -81t-45.5 -87.5t-106.5 -39.5l-40 77q30 0 58 16.5t28 29.5q0 44 -100 44q-50 0 -50 -20v-142h-108
v142q0 20 -58 20q-96 0 -96 -44q0 -15 25.5 -33t59.5 -24l-43 -69q-150 35 -150 123q0 55 58.5 88t134.5 33t123 -25q45 25 120 25t132.5 -33z" />
    <glyph glyph-name="ml_ll" unicode="&#xd61;" horiz-adv-x="2044" 
d="M1636 725q202 -22 305 -167t103 -368t-138 -398t-370 -175q-138 0 -256 78l52 106q98 -73 204 -73q178 0 282 142t104 327q0 338 -222 401q49 -94 49 -240q0 -149 -72 -262t-228 -113q-149 0 -226.5 96.5t-77.5 254.5t97 273.5t249 115.5q-59 100 -223 100
q-106 0 -171 -63.5t-65 -166.5v-593h-135v593q0 106 -70 168t-176 62q-159 0 -263.5 -112.5t-115.5 -272.5q23 61 90 94t142 33q124 0 212 -82t88 -212t-90 -209t-227 -79q-171 0 -256.5 118.5t-85.5 298.5q0 253 148.5 398t372.5 145q226 0 297 -146q66 146 282 146
q267 0 391 -218zM1629 354q0 150 -63 258q-23 3 -45 3q-111 0 -182 -82.5t-71 -191.5t44 -175.5t130 -66.5q187 0 187 255zM649 270q0 72 -48 125t-119 53q-72 0 -123.5 -51t-51.5 -123t51.5 -121.5t123.5 -49.5q71 0 119 48t48 119z" />
    <glyph glyph-name="l1" unicode="&#xd62;" horiz-adv-x="1784" 
d="M-1 -342q0 -108 -63 -183.5t-187 -75.5q-98 0 -159.5 49.5t-61.5 132.5t59.5 139.5t149.5 56.5q52 0 102 -20.5t66 -57.5q-7 93 -82.5 161.5t-190.5 68.5q-76 0 -129.5 -40t-53.5 -106v-373h-98v373q0 66 -52.5 106t-129.5 40q-115 0 -191 -68.5t-83 -161.5
q16 37 66 57.5t102 20.5q90 0 149.5 -56.5t59.5 -139.5t-61.5 -132.5t-159.5 -49.5q-122 0 -186 74t-64 185q0 140 98 243.5t260 103.5t240 -88q81 88 242 88q162 0 260 -103.5t98 -243.5zM-119 -419q0 45 -39 77.5t-90 32.5q-50 0 -85.5 -33t-35.5 -78t35 -75t86 -30
q53 0 91 30.5t38 75.5zM-831 -420q0 45 -35.5 78t-85.5 33q-51 0 -90 -32.5t-39 -77.5t38 -75.5t91 -30.5q51 0 86 30t35 75z" />
    <glyph glyph-name="l2" unicode="&#xd63;" horiz-adv-x="2044" 
d="M-75 -130q134 -14 202.5 -102t68.5 -223q0 -136 -91.5 -242t-245.5 -106q-92 0 -170 47l34 65q65 -45 136 -45q118 0 187 86.5t69 198.5q0 205 -148 244q33 -58 33 -146q0 -91 -48 -159.5t-151 -68.5q-99 0 -150.5 58.5t-51.5 154.5t64.5 166t165.5 70q-39 61 -148 61
q-71 0 -114 -38.5t-43 -100.5v-360h-89v360q0 64 -46.5 101.5t-117.5 37.5q-105 0 -174.5 -68t-76.5 -166q15 37 59.5 57.5t94.5 20.5q82 0 140.5 -50t58.5 -129t-60 -127t-151 -48q-113 0 -170 72t-57 181q0 154 99 242t247 88q150 0 197 -89q44 89 187 89q178 0 260 -132z
M-80 -356q0 91 -41 157q-16 2 -30 2q-74 0 -121 -50t-47 -116q0 -67 29 -107t86 -40q124 0 124 154zM-730 -407q0 44 -32 76t-79 32q-48 0 -82 -30.5t-34 -74.5t34 -74t82 -30q47 0 79 29t32 72z" />
    <glyph glyph-name="ml_0" unicode="&#xd66;" horiz-adv-x="964" 
d="M543 8q-423 0 -423 552.5t423 552.5t423 -552.5t-423 -552.5zM822 560.5q0 437.5 -279 437.5t-279 -437.5t274 -437.5q284 0 284 437.5z" />
    <glyph glyph-name="ml_1" unicode="&#xd67;" horiz-adv-x="1315" 
d="M1311 2l-936 -2q-164 0 -164 -118q0 -65 50 -98t114 -33h314v-129h-336q-116 0 -197 73t-81 187q0 113 74 185.5t184 72.5h121v462q0 188 124.5 320t302.5 132q180 0 305 -127.5t125 -312.5v-612zM1169 140v467q0 129 -84 219t-204 90t-202.5 -91t-82.5 -221v-464h573z
" />
    <glyph glyph-name="ml_2" unicode="&#xd68;" horiz-adv-x="1369" 
d="M1431 0h-629v106q216 129 216 396q0 174 -107 290t-271 116q-166 0 -270.5 -118t-104.5 -280t74 -277t207 -161l-89 -93q-152 69 -234 206t-82 313q0 235 147.5 391t365.5 156t356.5 -152.5t138.5 -395.5t-141 -361h423v-136z" />
    <glyph glyph-name="ml_3" unicode="&#xd69;" horiz-adv-x="1868" 
d="M1928 0h-630v106q217 129 217 396q0 150 -79.5 278t-215.5 128q-106 0 -175 -75t-69 -186v-647h-142v647q0 101 -65 184.5t-159 83.5q-145 0 -236.5 -119.5t-91.5 -271.5t75 -276.5t199 -178.5l-98 -98q-145 76 -225 220t-80 318q0 224 126.5 380t333.5 156q91 0 172 -45
t121 -129q34 86 129.5 130t194.5 44q196 0 308 -162q112 -163 112 -375t-128 -372h406v-136z" />
    <glyph glyph-name="ml_4" unicode="&#xd6a;" horiz-adv-x="1246" 
d="M1244 407q0 -162 -77.5 -295.5t-217.5 -133.5t-207.5 123t-67.5 278v539q-169 -10 -281 -148t-112 -319q0 -236 177 -372l-96 -95q-209 179 -209 477q0 237 149 410.5t372 180.5v244h138v-256q221 -31 326.5 -213.5t105.5 -419.5zM1105 409q0 172 -70.5 311t-222.5 177
v-516q0 -93 31 -177.5t109 -84.5q75 0 114 96t39 194z" />
    <glyph glyph-name="ml_5" unicode="&#xd6b;" horiz-adv-x="1748" 
d="M1750 531q0 -292 -160 -540l-108 64q128 214 128 464q0 293 -179 485.5t-479 192.5t-487 -208.5t-187 -518.5q0 -372 176.5 -547t415.5 -175q143 0 255.5 89.5t112.5 246.5q0 217 -196 217h-120v146h120q91 0 146 61t55 165t-81 174.5t-198 70.5q-185 0 -290.5 -137
t-105.5 -332t93 -414l-120 -54q-103 253 -103 493t143.5 404.5t382.5 164.5q176 0 296.5 -103.5t120.5 -274.5q0 -220 -145 -279q143 -66 143 -296t-157.5 -355t-380.5 -125q-266 0 -481 198.5t-215 634.5q0 384 220.5 634.5t582.5 250.5t582 -225t220 -572z" />
    <glyph glyph-name="ml_6" unicode="&#xd6c;" horiz-adv-x="2269" 
d="M2271 420q0 -331 -199.5 -579.5t-499.5 -248.5q-99 0 -204 40l39 132q78 -29 165 -29q246 0 408 206.5t162 478.5q0 204 -80 350.5t-249 146.5q-96 0 -160 -77.5t-64 -180.5v-659h-143v681q0 98 -68.5 167t-164.5 69t-166 -67.5t-70 -168.5v-681h-143v659
q0 101 -65 179.5t-158 78.5q-146 0 -230.5 -119.5t-84.5 -273.5q0 -153 68 -276.5t193 -176.5l-99 -98q-145 77 -225 221t-80 318q0 223 127 382t333 159q91 0 172 -44.5t121 -126.5q66 171 300 171t312 -171q42 82 121.5 126.5t169.5 44.5q230 0 346 -186t116 -447z" />
    <glyph glyph-name="ml_7" unicode="&#xd6d;" horiz-adv-x="1266" 
d="M1269 419q0 -333 -204 -581.5t-504 -248.5q-98 0 -199 42l40 125q75 -24 159 -24q246 0 409.5 205t163.5 477q0 208 -116 350q-114 142 -304 142t-305 -117t-125 -305q22 69 92 104t148 35q133 0 224.5 -90.5t91.5 -235.5t-93.5 -232t-239.5 -87q-180 0 -269 128t-89 329
q0 265 154.5 436.5t408.5 171.5t405.5 -181.5t151.5 -442.5zM627.5 165q49.5 53 49.5 133t-49.5 138t-124.5 58t-130 -57t-55 -137t54 -134t131 -54q75 0 124.5 53z" />
    <glyph glyph-name="ml_8" unicode="&#xd6e;" horiz-adv-x="1554" 
d="M1557 0l-4 -17q-50 -213 -214 -302.5t-400 -89.5q-88 0 -191 39l40 130q75 -26 200 -26t255.5 53.5t155.5 195.5l3 17h-590v107q216 128 216 396q0 176 -108 295.5t-272 119.5t-270.5 -122t-106.5 -300q0 -315 273 -416l-77 -100q-314 144 -314 518q0 235 146.5 390
t364.5 155t356.5 -151.5t138.5 -394.5t-150 -360h405v891h143v-1028z" />
    <glyph glyph-name="ml_9" unicode="&#xd6f;" horiz-adv-x="1758" 
d="M1761 405q0 -162 -78 -295t-216 -133t-207.5 123t-69.5 278v530q-101 -8 -158.5 -75.5t-57.5 -175.5v-656h-140v656q0 98 -66 174.5t-160 76.5q-145 0 -229.5 -116t-84.5 -264t66 -271t189 -177l-93 -101q-146 75 -225.5 220t-79.5 313q0 223 126.5 377.5t324.5 154.5
t301 -174q94 167 287 172v403h138v-415q221 -31 327 -213.5t106 -411.5zM1621 408q0 167 -70.5 304t-222.5 175v-507q0 -86 32.5 -174.5t108.5 -88.5t114 97.5t38 193.5z" />
    <glyph glyph-name="ml_10" unicode="&#xd70;" horiz-adv-x="1562" 
d="M1563 461q0 -201 -119.5 -341t-315.5 -140t-280 139q-89 -142 -278 -142q-61 0 -115 15q-50 -206 -255 -206q-198 0 -254 190l122 51q12 -112 120 -112q121 0 145 136q-38 28 -70 66q-118 140 -118 334q0 154 73.5 288.5t219.5 203.5l63 -104q-221 -105 -221 -397
q0 -143 83.5 -240t226.5 -97q81 0 132.5 71t51.5 152v592h142v-592q0 -88 60 -155.5t152 -67.5q135 0 217.5 105t82.5 241q0 285 -224 388l69 104q145 -67 217.5 -197t72.5 -285z" />
    <glyph glyph-name="ml_100" unicode="&#xd71;" horiz-adv-x="2269" 
d="M1230 882q42 82 121.5 126.5t226.5 44.5q230 0 346 -186t116 -447q0 -331 -199.5 -579.5t-499.5 -248.5q-99 0 -204 40l39 132q78 -29 165 -29q246 0 408 206.5t162 478.5q0 204 -80 350.5t-249 146.5q-153 0 -217 -77.5t-64 -180.5v-659h-143v681q0 102 -68 167
q-73 69 -162 69q-146 0 -230.5 -119.5t-84.5 -273.5q0 -153 68 -276.5t193 -176.5l-99 -98q-145 77 -225 221t-80 318q0 223 127 382t333 159q91 0 175.5 -44.5t124.5 -126.5z" />
    <glyph glyph-name="ml_1000" unicode="&#xd72;" horiz-adv-x="1929" 
d="M1147 252q0 -160 124 -160q162 0 162 251v62h-82q-204 0 -204 -153zM1880.5 591.5q27.5 26.5 27.5 65.5t-27.5 66t-65.5 27t-65 -27t-27 -66t27 -65.5t65 -26.5t65.5 26.5zM1929.5 770q47.5 -47 47.5 -112.5t-55 -123t-114 -57.5h-5l-238 -46l1 -98q0 -150 -78 -252
t-198 -102t-193.5 78.5t-73.5 194.5q0 273 374 273h26q-18 126 -91 212t-182 86t-164 -68t-55 -168v-596h-134v596q0 90 -63 163t-152 73q-134 0 -216.5 -107t-82.5 -246t65 -252.5t182 -162.5l-92 -88q-138 66 -215.5 197.5t-77.5 291.5q0 202 121.5 344.5t323.5 142.5
t273 -149q66 149 258 149t303 -119t142 -299h136v0v1q-47 49 -47 123t47.5 121t113.5 47t113.5 -47z" />
    <glyph glyph-name="ml_quarter" unicode="&#xd73;" horiz-adv-x="685" 
d="M534 151q50 49 50 120.5t-50 121.5t-120 50t-119 -50t-49 -121.5t49 -120.5t119 -49t120 49zM622 479q86 -87 86 -207.5t-86.5 -206.5t-206.5 -86t-206.5 86t-86.5 206.5t88.5 206t199.5 90.5h14h1l855 -7v-85z" />
    <glyph glyph-name="ml_half" unicode="&#xd74;" horiz-adv-x="1668" 
d="M872 815q-159 0 -263.5 -112.5t-115.5 -272.5q23 61 90 94t142 33q124 0 212 -82t88 -212t-90 -209t-244 -79t-239.5 118.5t-85.5 298.5q0 253 148.5 398t355.5 145l272 8q133 0 224 -43q62 54 62 120t-38.5 114t-92.5 48q-101 0 -193 -100l-77 77q91 144 278 144
q123 0 186.5 -80t63.5 -187.5t-76 -205.5q192 -164 192 -462q0 -150 -85.5 -270t-233.5 -120t-228 119t-80 273q0 234 222 429q-51 24 -140 24zM870 262q0 72 -48 125t-119 53q-72 0 -123.5 -51t-51.5 -123t51.5 -121.5t123.5 -49.5q71 0 119 48t48 119zM1533 370
q0 234 -157 369q-204 -167 -204 -364q0 -101 44 -189q46 -88 136 -88t135.5 86t45.5 186z" />
    <glyph glyph-name="ml_3quarter" unicode="&#xd75;" horiz-adv-x="1668" 
d="M570 823q-159 0 -263.5 -112.5t-115.5 -272.5q23 61 90 94t142 33q124 0 212 -82t88 -212t-90 -209t-244 -79t-239.5 118.5t-85.5 298.5q0 253 148.5 398t356 145t293.5 -132q89 132 280 132q133 0 224 -43q62 54 62 120t-38.5 114t-92.5 48q-101 0 -193 -100l-77 77
q91 144 278 144q123 0 186.5 -80t63.5 -187.5t-76 -205.5q192 -164 192 -462q0 -150 -85.5 -270t-233.5 -120t-228 119t-80 273q0 234 222 429q-51 24 -139.5 24t-142 -72.5t-53.5 -158.5v-592h-135v592q0 90 -67.5 160.5t-158.5 70.5zM568 270q0 72 -48 125t-119 53
q-72 0 -123.5 -51t-51.5 -123t51.5 -121.5t123.5 -49.5q71 0 119 48t48 119zM1533 370q0 234 -157 369q-204 -167 -204 -364q0 -101 44 -189q46 -88 136 -88t135.5 86t45.5 186z" />
    <glyph glyph-name="datemark" unicode="&#xd79;" horiz-adv-x="1929" 
d="M1932 405h-366v-72q0 -150 -78 -252t-198 -102t-193.5 78.5t-73.5 194.5q0 273 374 273h26q-18 126 -91 212t-186 86q-105 0 -160 -68t-55 -168v-596h-134v596q0 90 -63 163t-152 73q-134 0 -216.5 -107t-82.5 -246t65 -252.5t182 -162.5l-92 -88q-138 66 -215.5 197.5
t-77.5 291.5q0 202 121.5 344.5t323.5 142.5t273 -149q66 149 258 149t303 -119t142 -299h366v-120zM1147 252q0 -160 124 -160q162 0 162 251v62h-82q-204 0 -204 -153z" />
    <glyph glyph-name="nhcil2" unicode="&#xd7a;" horiz-adv-x="2355" 
d="M1987 1303q126 0 190.5 -78.5t64.5 -206.5q0 -83 -79 -184q194 -162 194 -462q0 -155 -84.5 -273.5t-233.5 -118.5q-148 0 -228 120t-80 277q0 231 221 426q-38 20 -123 20q-86 0 -146 -67t-60 -162v-594h-136v594q0 101 -64.5 165t-165.5 64t-162.5 -64t-61.5 -165v-594
h-146v594q0 229 -279 229q-142 0 -238.5 -117.5t-106.5 -266.5q45 118 200 118q117 0 191 -81q74 -80 74 -202t-78.5 -209t-201.5 -87q-150 0 -227.5 129t-77.5 288q0 232 135 390t352 158t327 -128q79 127 299 127q226 0 297 -127q100 128 279 128q136 0 221 -40
q61 57 61 121t-38 111t-94 47q-97 0 -190 -102l-78 79q87 144 273 144zM2217 374q0 237 -155 372q-206 -168 -206 -365q0 -97 46.5 -189t137.5 -92t134 88.5t43 185.5zM555 149.5q43 51.5 43 121.5t-42 122.5t-112 52.5t-112 -50q-42 -52 -43 -122q0 -70 42.5 -123
t111.5 -53t112 51.5z" />
    <glyph glyph-name="n1cil2" unicode="&#xd7b;" horiz-adv-x="1668" 
d="M1671 368q0 -150 -85 -270q-86 -120 -234 -120t-228 119t-80 273q0 234 222 429q-51 24 -139 24q-89 0 -142.5 -72.5t-53.5 -158.5v-592h-135v592q0 90 -61.5 160.5t-152.5 70.5q-131 0 -215 -105.5t-84 -243.5t64.5 -250t182.5 -161l-92 -87q-138 68 -215.5 198
t-77.5 288q0 199 121.5 340t315.5 141t280 -132q89 132 280 132q133 0 224 -43q62 54 62 120t-38.5 114t-92.5 48q-101 0 -193 -100l-77 77q91 144 278 144q123 0 186.5 -80t63.5 -188q0 -107 -76 -205q192 -164 192 -462zM1533 370q0 234 -157 369q-204 -167 -204 -364
q0 -101 44 -189q46 -88 136 -88t135.5 86t45.5 186z" />
    <glyph glyph-name="r3cil2" unicode="&#xd7c;" horiz-adv-x="1175" 
d="M1177 369q0 -160 -82 -275.5t-226 -115.5t-224 118.5t-80 274.5q0 236 218 430q-31 22 -112 22q-179 0 -290 -124t-111 -317t168 -322l-91 -80q-202 160 -202 408t142 401.5t379 153.5q121 0 216 -42q59 57 59 121t-37 111t-91 47q-98 0 -184 -96l-78 74q87 145 270 145
q130 0 192.5 -80t62.5 -203q0 -76 -86 -188q187 -165 187 -463zM1041 371q0 235 -152 369q-193 -162 -193 -364q0 -104 41.5 -191t130.5 -87t131 84t42 189z" />
    <glyph glyph-name="l3cil2" unicode="&#xd7d;" horiz-adv-x="1872" 
d="M1875 369q0 -152 -85 -271.5t-232 -119.5t-228.5 116.5t-81.5 248.5q0 133 57 223.5t170 198.5q-76 58 -218 58q-143 0 -256 -33q87 -66 146.5 -190.5t59.5 -252.5t-94.5 -248.5t-243.5 -120.5t-235 111.5t-86 274.5q0 255 209 427q-82 32 -131 32q-152 0 -254 -115
t-102 -269q0 -257 189 -385l-81 -78q-235 154 -235 475q0 201 141.5 346.5t388.5 145.5q119 0 214 -72q109 72 318 72q206 0 345 -68q70 61 70 135t-30.5 123t-88.5 49q-95 0 -188 -100l-82 77q91 144 281 144q247 0 247 -290q0 -96 -90 -216q206 -184 206 -428zM1695 184
q46 86 46 207q0 169 -154 308q-212 -180 -212 -358q0 -88 44 -165.5t136 -77.5q94 0 140 86zM1064 364q0 216 -192 359q-192 -136 -192 -359q0 -271 197 -271q93 0 140 84.5t47 186.5z" />
    <glyph glyph-name="lhcil2" unicode="&#xd7e;" horiz-adv-x="1689" 
d="M525 103q227 0 232 275l4 185q3 160 114.5 270t287.5 110q122 0 225 -52q59 59 59 127t-37.5 115t-91.5 47q-99 0 -197 -108l-73 86q92 145 279 145q122 0 185.5 -79t63.5 -190t-77 -214q192 -172 192 -452q0 -164 -85 -277.5t-231 -113.5q-148 0 -229.5 118t-81.5 275
q0 215 224 419q-45 34 -114 34q-281 0 -281 -374v-98q0 -159 -104 -266.5t-282 -107.5q-177 0 -269.5 135.5t-92.5 339.5q0 348 280 490l84 -79q-228 -112 -228 -392q0 -147 57.5 -257.5t186.5 -110.5zM1509 182.5q44 84.5 44 196.5t-33 188.5t-122 156.5
q-206 -174 -206 -349q0 -106 44.5 -191.5t136.5 -85.5t136 84.5z" />
    <glyph glyph-name="k1cil2" unicode="&#xd7f;" horiz-adv-x="1607" 
d="M1610 275q0 -126 -68 -211.5t-191 -85.5q-165 0 -207 136q-66 -136 -268 -136t-267 136q-42 -136 -206 -136q-125 0 -191.5 85.5t-66.5 211.5q0 144 89 220.5t248 76.5h56q0 165 87 268t248 103q127 0 210.5 -55.5t112.5 -163.5q15 22 117.5 121t102.5 179
q0 63 -42 110.5t-101 47.5q-106 0 -221 -115l-70 92q96 144 300 144q134 0 202 -79t68 -191t-123.5 -236.5t-144.5 -162.5q-20 -34 -28 -62q161 0 257.5 -61t96.5 -236zM1489 278q0 172 -209 172h-54q0 -18 -11 -91.5t-11 -120.5t37 -95t103 -48q65 0 105 55t40 128z
M1086 572v30q0 93 -58 157t-150 64t-151 -64t-59 -157v-30h418zM1088 450h-420v-38q0 -319 214 -319q206 0 206 319v38zM546 251l-8 199h-64q-209 0 -209 -172q0 -72 39.5 -127.5t106.5 -55.5q66 0 100.5 47t34.5 109z" />
    <glyph glyph-name="ZWNJ" unicode="&#x200c;" horiz-adv-x="321" 
d="M66 1032h159v-989h-159v989z" />
    <glyph glyph-name="ZWJ" unicode="&#x200d;" horiz-adv-x="321" 
d="M148 1012l-134 -208h-104l186 272l-172 248h109l78 -121q9 -14 34 -59l125 180h107l-178 -244l188 -276h-104zM70 888h154v-875h-154v875z" />
    <glyph glyph-name="rupee" unicode="&#x20b9;" horiz-adv-x="1101" 
d="M788 1250q43 -55 59 -137h233l-53 -121h-178q-24 -179 -180 -269q-93 -54 -211 -61l466 -659h-206l-461 626v123h122q189 0 272 114q42 58 42 125v1h-483l64 121h405q-43 111 -177 130q-55 7 -136 7h-156l64 120h806l-53 -120h-239z" />
    <glyph glyph-name="uni25CC" unicode="&#x25cc;" horiz-adv-x="1131" 
d="M1038 784l-108 -74q-33 55 -74 94q-29 27 -62 39l74 101q80 -52 112 -84l4 -2q38 -47 54 -74zM686 1017l-20 -120q-64 10 -98 10t-98 -10l-20 120q71 16 120 16t116 -16zM1098 630q14 -57 14 -112.5t-14 -112.5l-126 21q9 60 9 90q0 27 -9 93zM1038 250q-58 -80 -84 -108
h-2q-2 -2 -84 -51l-74 101q72 44 94 68q36 52 42 65zM348 843q-84 -47 -96 -72l-40 -61l-108 74q52 76 82 104q12 9 84 56zM170 426l-128 -21q-12 56 -12 112t12 113l128 -21q-12 -33 -12 -91.5t12 -91.5zM686 18q-46 -14 -115 -14t-121 14l20 120q65 -10 98.5 -10t97.5 10z
M348 192l-78 -101q-92 59 -112 84h-2l-52 75l108 75q50 -77 72 -91q10 -8 64 -42z" />
    <glyph glyph-name="r4" horiz-adv-x="459" 
d="M659 -63l-17 -139q-99 -23 -155 -23q-352 0 -352 403q0 156 38.5 397t79.5 345h120q-110 -457 -110 -719q0 -311 226 -311q76 0 170 47z" />
    <glyph glyph-name="y2" horiz-adv-x="517" 
d="M577 79q75 -109 75 -228q0 -118 -99 -196.5t-223 -78.5t-208 55t-84 148q0 117 114 168q40 19 44 61l3 35h120v-21q0 -96 -71.5 -136t-71.5 -94q0 -91 135 -91q78 0 137.5 44t59.5 129t-74 183q-220 289 -226 443q-1 18 -5 420h135q-1 -53 -1 -143q0 -89 6.5 -228
t233.5 -470z" />
    <glyph glyph-name="y2u1" horiz-adv-x="533" 
d="M702 -424q48 -70 48 -170t-79.5 -181t-193.5 -81t-194 81t-80 182t49 173q-214 33 -214 211q0 101 114 155q42 20 44 61l2 35h120v-21q0 -96 -71 -136t-71 -94q0 -91 135 -91q78 0 137.5 44t59.5 131t-87 198q-207 264 -213 424q-1 18 -5 423h135q-1 -64 -1 -157t5 -210
q7 -146 234 -475q76 -110 76 -217t-76 -185q78 -30 126 -100zM591 -695q47 47 47 115t-47 115t-114 47t-115 -47t-48 -115t48 -115.5t115 -47.5t114 48z" />
    <glyph glyph-name="y2u2" horiz-adv-x="541" 
d="M735.5 -426.5q57.5 -78.5 57.5 -191.5t-88 -203t-215 -90t-217 90t-90 204t65 196q-210 38 -210 211q0 101 114 155q43 20 45 61l2 35h120v-20q0 -96 -71.5 -136.5t-71.5 -94.5q0 -91 136 -91q78 0 137.5 44.5t59.5 127.5t-75 184q-218 292 -225 443q-2 55 -5 422h134
q-1 -58 -1 -149t5 -195q8 -169 235 -499q76 -110 76 -215q0 -104 -66 -177q91 -33 148.5 -111.5zM554 -580q30 28 30 69t-30 69t-70 28t-68.5 -28t-28.5 -69t28.5 -69t68.5 -28t70 28zM626.5 -741q56.5 57 56.5 123t-30 113q0 -75 -49 -124.5t-118 -49.5t-117 47.5
t-50 114.5q-23 -43 -23 -105t57 -119t137 -57t136.5 57z" />
    <glyph glyph-name="v2" horiz-adv-x="428" 
d="M430 0h-371v125h230v795h141v-920z" />
    <glyph glyph-name="k1cil" horiz-adv-x="1607" 
d="M1610 275q0 -126 -68 -211.5t-191 -85.5q-165 0 -207 136q-66 -136 -268 -136t-267 136q-42 -136 -206 -136q-125 0 -191.5 85.5t-66.5 211.5q0 144 89 220.5t248 76.5h56q0 165 87 268t248 103q127 0 210.5 -55.5t112.5 -163.5q15 22 117.5 121t102.5 179
q0 63 -42 110.5t-101 47.5q-106 0 -221 -115l-70 92q96 144 300 144q134 0 202 -79t68 -191t-123.5 -236.5t-144.5 -162.5q-20 -34 -28 -62q161 0 257.5 -61t96.5 -236zM1489 278q0 172 -209 172h-54q0 -18 -11 -91.5t-11 -120.5t37 -95t103 -48q65 0 105 55t40 128z
M1086 572v30q0 93 -58 157t-150 64t-151 -64t-59 -157v-30h418zM1088 450h-420v-38q0 -319 214 -319q206 0 206 319v38zM546 251l-8 199h-64q-209 0 -209 -172q0 -72 39.5 -127.5t106.5 -55.5q66 0 100.5 47t34.5 109z" />
    <glyph glyph-name="nhcil" horiz-adv-x="2355" 
d="M1987 1303q126 0 190.5 -78.5t64.5 -206.5q0 -83 -79 -184q194 -162 194 -462q0 -155 -84.5 -273.5t-233.5 -118.5q-148 0 -228 120t-80 277q0 231 221 426q-38 20 -123 20q-86 0 -146 -67t-60 -162v-594h-136v594q0 101 -64.5 165t-165.5 64t-162.5 -64t-61.5 -165v-594
h-146v594q0 229 -279 229q-142 0 -238.5 -117.5t-106.5 -266.5q45 118 200 118q117 0 191 -81q74 -80 74 -202t-78.5 -209t-201.5 -87q-150 0 -227.5 129t-77.5 288q0 232 135 390t352 158t327 -128q79 127 299 127q226 0 297 -127q100 128 279 128q136 0 221 -40
q61 57 61 121t-38 111t-94 47q-97 0 -190 -102l-78 79q87 144 273 144zM2217 374q0 237 -155 372q-206 -168 -206 -365q0 -97 46.5 -189t137.5 -92t134 88.5t43 185.5zM555 149.5q43 51.5 43 121.5t-42 122.5t-112 52.5t-112 -50q-42 -52 -43 -122q0 -70 42.5 -123
t111.5 -53t112 51.5z" />
    <glyph glyph-name="n1cil" horiz-adv-x="1668" 
d="M1671 368q0 -150 -85 -270q-86 -120 -234 -120t-228 119t-80 273q0 234 222 429q-51 24 -139 24q-89 0 -142.5 -72.5t-53.5 -158.5v-592h-135v592q0 90 -61.5 160.5t-152.5 70.5q-131 0 -215 -105.5t-84 -243.5t64.5 -250t182.5 -161l-92 -87q-138 68 -215.5 198
t-77.5 288q0 199 121.5 340t315.5 141t280 -132q89 132 280 132q133 0 224 -43q62 54 62 120t-38.5 114t-92.5 48q-101 0 -193 -100l-77 77q91 144 278 144q123 0 186.5 -80t63.5 -188q0 -107 -76 -205q192 -164 192 -462zM1533 370q0 234 -157 369q-204 -167 -204 -364
q0 -101 44 -189q46 -88 136 -88t135.5 86t45.5 186z" />
    <glyph glyph-name="l3cil" horiz-adv-x="1872" 
d="M1875 369q0 -152 -85 -271.5t-232 -119.5t-228.5 116.5t-81.5 248.5q0 133 57 223.5t170 198.5q-76 58 -218 58q-143 0 -256 -33q87 -66 146.5 -190.5t59.5 -252.5t-94.5 -248.5t-243.5 -120.5t-235 111.5t-86 274.5q0 255 209 427q-82 32 -131 32q-152 0 -254 -115
t-102 -269q0 -257 189 -385l-81 -78q-235 154 -235 475q0 201 141.5 346.5t388.5 145.5q119 0 214 -72q109 72 318 72q206 0 345 -68q70 61 70 135t-30.5 123t-88.5 49q-95 0 -188 -100l-82 77q91 144 281 144q247 0 247 -290q0 -96 -90 -216q206 -184 206 -428zM1695 184
q46 86 46 207q0 169 -154 308q-212 -180 -212 -358q0 -88 44 -165.5t136 -77.5q94 0 140 86zM1064 364q0 216 -192 359q-192 -136 -192 -359q0 -271 197 -271q93 0 140 84.5t47 186.5z" />
    <glyph glyph-name="lhcil" horiz-adv-x="1689" 
d="M525 103q227 0 232 275l4 185q3 160 114.5 270t287.5 110q122 0 225 -52q59 59 59 127t-37.5 115t-91.5 47q-99 0 -197 -108l-73 86q92 145 279 145q122 0 185.5 -79t63.5 -190t-77 -214q192 -172 192 -452q0 -164 -85 -277.5t-231 -113.5q-148 0 -229.5 118t-81.5 275
q0 215 224 419q-45 34 -114 34q-281 0 -281 -374v-98q0 -159 -104 -266.5t-282 -107.5q-177 0 -269.5 135.5t-92.5 339.5q0 348 280 490l84 -79q-228 -112 -228 -392q0 -147 57.5 -257.5t186.5 -110.5zM1509 182.5q44 84.5 44 196.5t-33 188.5t-122 156.5
q-206 -174 -206 -349q0 -106 44.5 -191.5t136.5 -85.5t136 84.5z" />
    <glyph glyph-name="r3cil" horiz-adv-x="1175" 
d="M1177 369q0 -160 -82 -275.5t-226 -115.5t-224 118.5t-80 274.5q0 236 218 430q-31 22 -112 22q-179 0 -290 -124t-111 -317t168 -322l-91 -80q-202 160 -202 408t142 401.5t379 153.5q121 0 216 -42q59 57 59 121t-37 111t-91 47q-98 0 -184 -96l-78 74q87 145 270 145
q130 0 192.5 -80t62.5 -203q0 -76 -86 -188q187 -165 187 -463zM1041 371q0 235 -152 369q-193 -162 -193 -364q0 -104 41.5 -191t130.5 -87t131 84t42 189z" />
    <glyph glyph-name="k1u1" horiz-adv-x="1584" 
d="M1526 271q61 -33 61 -117t-62.5 -130.5t-152.5 -46.5t-146 36l47 96q39 -24 88 -24q105 0 105 72q0 59 -59 59h-102v118h101q51 0 51 52q0 67 -64 67h-189v-55q0 -421 -330 -421q-199 0 -263 132q-39 -132 -208 -132q-127 0 -192.5 87t-65.5 212q0 133 83 216t219 83h91
v42q0 130 93.5 228t251.5 98q141 0 231 -99t90 -227v-42h139q124 0 184 -42.5t60 -130.5q0 -90 -61 -131zM1069 575v37q0 70 -55.5 140.5t-143.5 70.5q-89 0 -145.5 -67t-56.5 -149v-32h401zM1069 414v39h-401v-42q0 -311 200 -311t201 314zM538 409v44h-65
q-208 0 -208 -163q0 -79 35 -134.5t106 -55.5q69 0 104 44.5t35 91.5q0 2 -7 173z" />
    <glyph glyph-name="k1u2" horiz-adv-x="1491" 
d="M1493 178q0 -178 -183 -178h-849q-63 0 -108.5 -35.5t-45.5 -92.5t46.5 -86.5t107.5 -29.5h1004v-122h-1025q-117 0 -193 61t-76 175t77.5 180.5t191.5 66.5h833q88 0 88 59q0 79 -76 79h-106v111h98q84 0 84 66q0 88 -138 88h-120v-24q0 -344 -300 -344q-170 0 -236 101
q-47 -101 -174 -101t-187.5 73t-60.5 178t80.5 170t196.5 65h72v25q0 116 87 198t222 82t217.5 -83t82.5 -197v-25h170q113 0 165.5 -47.5t52.5 -129.5q0 -119 -64 -154q66 -25 66 -129zM968 638v20q0 66 -49 116t-123 50t-122 -50.5t-48 -117.5v-18h342zM968 501v19h-342
v-19q0 -241 171 -241t171 241zM494 501v19h-47q-178 0 -178 -117q0 -141 124 -141q49 0 79 33t30 73z" />
    <glyph glyph-name="k1r1" horiz-adv-x="1605" 
d="M1607 175q0 -274 -206.5 -438.5t-483.5 -164.5q-131 0 -251 50t-120 163q0 89 92 129t205 40t236 -49t133 -143q130 64 200 181t70 233t-82.5 194.5t-194.5 78.5q0 -453 -330 -453q-202 0 -265 130q-22 -64 -80 -106.5t-127 -42.5q-124 0 -191 86t-67 213
q0 169 105.5 232.5t246.5 63.5h42q0 167 86 269t251 102q164 0 246.5 -104t82.5 -267q175 -8 288.5 -110t113.5 -287zM1069 572v37q0 84 -58.5 149t-142.5 65q-86 0 -143 -65.5t-57 -153.5v-32h401zM1069 449h-401v-37q0 -298 200 -298t201 335zM546 234l-8 185q0 15 1 30
h-65q-209 0 -209 -171q0 -73 38.5 -124.5t104.5 -51.5t102 45t36 87zM1084 -252q0 42 -87 64t-149 22q-168 0 -168 -54q0 -42 83 -67.5t142 -25.5q179 0 179 61z" />
    <glyph glyph-name="k1r2" horiz-adv-x="1611" 
d="M1477 170q0 116 -80 197.5t-192 81.5q0 -453 -330 -453q-202 0 -265 130q-22 -64 -80 -106.5t-127 -42.5q-124 0 -191 86t-67 213q0 169 105.5 232.5t246.5 63.5h42q0 167 86 269t251 102q164 0 246.5 -104t82.5 -267q174 -8 289 -112t116 -296q0 -270 -185 -432
q-186 -164 -459 -164q-420 0 -420 214q0 80 71 127t161 47q155 0 212 -94q39 96 173 96t194 -124q120 124 120 336zM1069 572v37q0 84 -58.5 149t-142.5 65q-86 0 -143 -65.5t-57 -153.5v-32h401zM1069 449h-401v-37q0 -298 200 -298t201 335zM546 234l-8 185q0 15 1 30h-65
q-209 0 -209 -171q0 -73 38.5 -124.5t104.5 -51.5t102 45t36 87zM1266 -246q-12 92 -102 92q-48 0 -80 -29.5t-32 -71.5v-28h-114v40q-2 42 -48.5 65.5t-90.5 23.5q-121 0 -121 -66q0 -104 271 -104q193 0 317 78z" />
    <glyph glyph-name="k1l1" horiz-adv-x="1605" 
d="M1517.5 508.5q89.5 -68.5 89.5 -198.5t-72 -210.5t-208 -80.5q-56 0 -101 18v118q40 -24 82 -24q164 0 164 179q0 147 -194 147h-73v-37q0 -401 -330 -401q-202 0 -265 131q-43 -132 -207 -132q-125 0 -191.5 84.5t-66.5 204.5t87 195t213 75h94v40q0 138 94 232t243 94
t239 -95.5t90 -230.5v-40h92q131 0 220.5 -68.5zM1430 -362q0 -277 -216 -277q-96 0 -152 54q-56 55 -56 145t52.5 151t127.5 61t127 -42q-23 70 -82 117t-131 47t-114 -41t-42 -99v-378h-114v378q0 58 -41 99t-113 41t-130.5 -47t-81.5 -117q50 42 127 42t130 -62t53 -152
t-55 -143.5t-151 -53.5q-221 0 -221 277q0 143 90 252t232 109q148 0 218 -95q71 95 221 95q144 0 233 -109t89 -252zM1069 577v35q0 86 -56.5 147.5t-144.5 61.5t-144 -62.5t-56 -151.5v-30h401zM1069 425v32h-401v-32q0 -294 200 -294t201 294zM1320 -440q0 39 -32 67
t-72 28t-69 -29.5t-29 -68.5q0 -93 99 -93q42 0 72.5 28.5t30.5 67.5zM539 422v35h-65q-209 0 -209 -150q0 -67 38 -118t103 -51q66 0 103.5 39t37.5 91q0 10 -8 154zM664 -443q0 39 -29.5 68.5t-70.5 29.5t-72.5 -28t-31.5 -67t30.5 -67.5t74.5 -28.5q99 0 99 93z" />
    <glyph glyph-name="k1k1" horiz-adv-x="2018" 
d="M2018 442q0 -337 -307 -468l-67 103q250 91 250 363q0 164 -96.5 273.5t-266.5 109.5q-90 0 -190.5 -72.5t-100.5 -168.5v-12h89q312 0 312 -294q0 -129 -76 -213.5t-214 -84.5q-137 0 -207 157q-33 -72 -110.5 -114.5t-159.5 -42.5q-199 0 -265 136q-42 -136 -206 -136
q-125 0 -191.5 90t-66.5 228q0 163 109 219.5t246 56.5h38q0 164 86 267.5t248 103.5q104 0 194.5 -45.5t124.5 -131.5q97 177 341 177q218 0 352 -138t134 -363zM1514 279q0 171 -202 171h-79q-2 -4 -2 -49q0 -158 36.5 -228.5t104.5 -70.5t105 52t37 125zM1090 572v32
q0 104 -55 161.5t-152 57.5t-156 -63t-59 -156v-32h422zM1090 412v38h-422v-38q0 -319 214 -319q208 0 208 319zM546 252l-8 198h-64q-209 0 -209 -171q0 -73 39.5 -128.5t104.5 -55.5t101 47t36 110z" />
    <glyph glyph-name="k1k1u1" horiz-adv-x="2056" 
d="M1803.5 774q-107.5 48 -227.5 48q-127 0 -231.5 -71.5t-104.5 -168.5v-12h89q312 0 312 -294q0 -129 -76 -213.5t-214 -84.5q-137 0 -207 157q-33 -72 -110.5 -114.5t-159.5 -42.5q-199 0 -265 136q-42 -136 -206 -136q-125 0 -191.5 90t-66.5 228q0 163 109 219.5
t246 56.5h38q0 164 86 267.5t248 103.5q104 0 194.5 -45.5t124.5 -131.5q101 177 395 177q154 0 311 -77t157 -235q0 -156 -125 -182q127 -40 127 -233q0 -110 -78.5 -173.5t-179.5 -63.5t-147 12v124q49 -31 111 -31q61 0 106 38t45 104t-37.5 108.5t-103.5 42.5h-96v128
q115 0 175 16t60 111q0 94 -107.5 142zM1514 279q0 171 -202 171h-79q-2 -4 -2 -49q0 -158 36.5 -228.5t104.5 -70.5t105 52t37 125zM1090 572v32q0 104 -55 161.5t-152 57.5t-156 -63t-59 -156v-32h422zM1090 412v38h-422v-38q0 -319 214 -319q208 0 208 319zM546 252
l-8 198h-64q-209 0 -209 -171q0 -73 39.5 -128.5t104.5 -55.5t101 47t36 110z" />
    <glyph glyph-name="k1k1u2" horiz-adv-x="1862" 
d="M1769 497q96 -49 96 -221t-99 -224t-275 -52h-1030q-63 0 -108.5 -36.5t-45.5 -96.5q0 -113 154 -113h1377v-122h-1398q-117 0 -193 60t-76 174t77.5 181.5t191.5 67.5h1015q135 0 203.5 28.5t68.5 151.5q0 64 -30.5 106t-81.5 42h-87v120h71q121 0 121 108
q0 71 -78 111.5t-206 40.5t-216 -57.5t-88 -145.5v-5h77q284 0 284 -221q0 -106 -76 -178.5t-191 -72.5t-183 122q-70 -122 -238 -122t-238 101q-47 -101 -171 -101t-187.5 66.5t-63.5 172.5q0 235 351 235q3 133 82.5 229.5t222.5 96.5q202 0 277 -141q111 141 359 141
q177 0 299.5 -65t122.5 -205t-90 -176zM1366 394q0 108 -206 108h-37q-3 -12 -3 -49q0 -195 115 -195q57 0 94 42t37 94zM987 617v18q0 81 -47.5 135t-129.5 54t-132 -58t-50 -128v-21h359zM987 502h-359v-22q0 -226 183 -226q176 0 176 226v22zM503 371l-7 131h-49
q-178 0 -178 -120q0 -57 32.5 -93t86.5 -36t84.5 35.5t30.5 82.5z" />
    <glyph glyph-name="k1k1r1" horiz-adv-x="2024" 
d="M1524 943q231 0 367.5 -138t136.5 -361q0 -347 -194.5 -608.5t-530.5 -261.5q-126 0 -244 50.5t-118 162.5q0 90 96.5 130t205.5 40q108 0 227.5 -47t136.5 -125q146 104 217 279.5t71 355.5q0 179 -91.5 291t-271.5 112q-90 0 -191 -72.5t-101 -168.5v-12h89
q312 0 312 -294q0 -129 -76 -213.5t-214 -84.5q-137 0 -207 157q-33 -72 -110.5 -114.5t-159.5 -42.5q-199 0 -265 136q-42 -136 -206 -136q-125 0 -191.5 90t-66.5 228q0 163 109 219.5t246 56.5h38q0 164 86 267.5t248 103.5q112 0 200 -46.5t121 -130.5q100 177 331 177z
M1514 279q0 171 -202 171h-79q-2 -4 -2 -49q0 -158 36.5 -228.5t104.5 -70.5t105 52t37 125zM1090 572v32q0 104 -55 161.5t-152 57.5t-156 -63t-59 -156v-32h422zM1090 412v38h-422v-38q0 -319 214 -319q208 0 208 319zM546 252l-8 198h-64q-209 0 -209 -171
q0 -73 39.5 -128.5t104.5 -55.5t101 47t36 110zM1479 -250q0 42 -87 64.5t-149 22.5q-164 0 -164 -54q0 -45 82 -69.5t138 -24.5q180 0 180 61z" />
    <glyph glyph-name="k1k1r3" horiz-adv-x="2294" 
d="M1800 943q220 -1 356.5 -145t136.5 -361q0 -402 -278.5 -606t-792.5 -204t-794.5 212t-280.5 632q0 150 47 249.5t155 222.5l86 -88q-168 -190 -168 -384q0 -355 248.5 -538.5t706.5 -183.5t704.5 173.5t246.5 511.5q0 168 -97.5 278.5t-271.5 110.5q-90 0 -190.5 -72.5
t-100.5 -168.5v-12h89q312 0 312 -294q0 -129 -76 -213.5t-214 -84.5q-137 0 -207 157q-33 -72 -110.5 -114.5t-159.5 -42.5q-199 0 -265 136q-42 -136 -206 -136q-125 0 -191.5 90t-66.5 228q0 163 109 219.5t246 56.5h38q0 164 86 267.5t248 103.5q104 0 194.5 -45.5
t124.5 -131.5q101 177 336 177zM1787 279q0 171 -202 171h-79q-2 -4 -2 -49q0 -158 36 -228.5t104 -70.5t105.5 52t37.5 125zM1363 572v32q0 104 -55 161.5t-152 57.5t-156 -63t-59 -156v-32h422zM1363 412v38h-422v-38q0 -319 214 -319q208 0 208 319zM819 252l-8 198h-64
q-209 0 -209 -171q0 -73 39.5 -128.5t104.5 -55.5t101 47t36 110z" />
    <glyph glyph-name="k1k1r3u1" horiz-adv-x="2294" 
d="M2116 -492q46 48 46 116t-46 114.5t-114 46.5t-116 -46.5t-48 -114.5t48 -116t116 -48t114 48zM819 252l-8 198h-64q-209 0 -209 -171q0 -73 39.5 -128.5t104.5 -55.5t101 47t36 110zM1363 412v38h-422v-38q0 -319 214 -319q208 0 208 319zM1363 572v32q0 104 -55 161.5
t-152 57.5t-156 -63t-59 -156v-32h422zM1787 279q0 171 -202 171h-79q-2 -4 -2 -49q0 -158 36 -228.5t104.5 -70.5t105.5 52t37 125zM2156 798q137 -144 137 -361q0 -351 -213 -551q84 -25 140 -97.5t56 -176.5t-80.5 -184.5t-194.5 -80.5t-193.5 81t-79.5 195q0 36 9 72
q-217 -68 -515 -68q-514 0 -794.5 212t-280.5 632q0 150 47 249.5t155 222.5l86 -88q-168 -190 -168 -384q0 -355 246 -538.5t709 -183.5q458 0 704.5 173.5t246.5 511.5q0 175 -97.5 282t-271.5 107q-90 0 -190.5 -72.5t-100.5 -168.5v-12h89q312 0 312 -294
q0 -129 -76 -213.5t-214 -84.5q-137 0 -207 157q-33 -72 -110.5 -114.5t-159.5 -42.5q-199 0 -265 136q-42 -136 -206 -136q-125 0 -191.5 90t-66.5 228q0 163 109 219.5t246 56.5h38q0 164 86 267.5t248 103.5q104 0 194.5 -45.5t124.5 -131.5q96 177 333 177
q222 0 359 -145z" />
    <glyph glyph-name="k1k1r3u2" horiz-adv-x="2294" 
d="M2108 -556.5q56 56.5 56 122.5t-28 114q0 -76 -48 -125.5t-119 -49.5q-70 0 -118 48t-50 114q-22 -41 -22 -104t56.5 -119.5t136.5 -56.5t136 56.5zM2036 -395q30 29 30 69t-26.5 68t-72.5 28q-40 0 -68.5 -28t-28.5 -68t28.5 -68.5t68.5 -28.5q39 0 69 28zM2064 -132
q93 -28 152.5 -108t59.5 -194t-89 -203t-215 -89t-216 89.5t-90 215.5q0 52 17 99l1 2q-200 -53 -462 -53q-514 0 -794.5 212t-280.5 632q0 150 47 249.5t155 222.5l86 -88q-168 -190 -168 -384q0 -355 248.5 -538.5t706.5 -183.5q467 0 709 173.5t242 511.5
q0 169 -97.5 279t-271.5 110q-90 0 -190.5 -72.5t-100.5 -168.5v-12h89q312 0 312 -294q0 -129 -76 -213.5t-214 -84.5q-137 0 -207 157q-33 -72 -110.5 -114.5t-159.5 -42.5q-199 0 -265 136q-42 -136 -206 -136q-125 0 -191.5 90t-66.5 228q0 163 109 219.5t246 56.5h38
q0 164 86 267.5t248 103.5q104 0 194.5 -45.5t124.5 -131.5q99 177 336 177q228 0 360.5 -144.5t132.5 -361.5q0 -366 -232 -568q2 -1 3 -1zM819 252l-8 198h-64q-209 0 -209 -171q0 -73 39.5 -128.5t104.5 -55.5t101 47t36 110zM1363 412v38h-422v-38q0 -319 214 -319
q208 0 208 319zM1363 572v32q0 104 -55 161.5t-152 57.5t-156 -63t-59 -156v-32h422zM1787 279q0 171 -202 171h-79q-2 -4 -2 -49q0 -158 36 -228.5t104 -70.5t105.5 52t37.5 125z" />
    <glyph glyph-name="k1t1" horiz-adv-x="1605" 
d="M1517.5 507.5q89.5 -68.5 89.5 -198.5t-72 -210.5t-208 -80.5q-56 0 -101 18v118q40 -24 82 -24q164 0 164 178q0 148 -194 148h-73v-37q0 -401 -330 -401q-202 0 -265 131q-45 -131 -207 -131q-125 0 -191.5 84t-66.5 204t87 195t213 75h94v40q0 138 94 232.5t243 94.5
t239 -96t90 -231v-40h92q131 0 220.5 -68.5zM1418 -111l-69 -77q-77 84 -229 84t-152 -93q0 -71 116 -71h112q218 0 218 -173q0 -101 -79 -148.5t-190 -47.5q-186 0 -294 111l71 75q76 -82 228 -82t153 92q0 67 -116 67h-106q-97 0 -161 47t-64 137q0 94 79.5 141.5
t190.5 47.5q187 0 292 -110zM1069 576v35q0 86 -56.5 147.5t-144.5 61.5q-89 0 -144.5 -62.5t-55.5 -151.5v-30h401zM1069 424v32h-401v-32q0 -294 200 -294t201 294zM539 421v35h-65q-209 0 -209 -150q0 -66 38.5 -120t103.5 -54t102.5 41.5t37.5 93.5q0 10 -8 154z" />
    <glyph glyph-name="k1t1u1" horiz-adv-x="1605" 
d="M1517.5 507.5q89.5 -68.5 89.5 -198.5t-72 -210.5t-208 -80.5q-56 0 -101 18v118q40 -24 82 -24q164 0 164 178q0 148 -194 148h-73v-37q0 -401 -330 -401q-202 0 -265 131q-45 -131 -207 -131q-125 0 -191.5 84t-66.5 204t87 195t213 75h94v40q0 138 94 232.5t243 94.5
t239 -96t90 -231v-40h92q131 0 220.5 -68.5zM1069 576v35q0 86 -56.5 147.5t-144.5 61.5q-89 0 -144.5 -62.5t-55.5 -151.5v-30h401zM1069 424v32h-401v-32q0 -294 200 -294t201 294zM539 421v35h-65q-209 0 -209 -150q0 -66 38.5 -120t103.5 -54t102.5 41.5t37.5 93.5
q0 2 -8 154zM1418 -109l-69 -77q-77 84 -229 84t-152 -94q0 -70 116 -70h112q218 0 218 -173q0 -113 -108 -165q78 -63 78 -158t-61 -157.5t-149 -62.5t-150.5 62.5t-62.5 149.5q0 86 59 147q-96 22 -169 99l71 75q83 -83 228 -83q153 0 153 91q0 69 -116 69h-106
q-98 0 -161.5 46t-63.5 138q0 94 79.5 141.5t190.5 47.5q187 0 292 -110zM1297 -770q0 51 -36.5 87.5t-88.5 36.5q-51 0 -86.5 -36.5t-35.5 -87.5q0 -52 35.5 -87.5t86.5 -35.5q52 0 88.5 35.5t36.5 87.5z" />
    <glyph glyph-name="k1t1u2" horiz-adv-x="1605" 
d="M1517.5 507.5q89.5 -68.5 89.5 -198.5t-72 -210.5t-208 -80.5q-56 0 -101 18v118q40 -24 82 -24q164 0 164 178q0 148 -194 148h-73v-37q0 -401 -330 -401q-202 0 -265 131q-45 -131 -207 -131q-125 0 -191.5 84t-66.5 204t87 195t213 75h94v40q0 138 94 232.5t243 94.5
t239 -96t90 -231v-40h92q131 0 220.5 -68.5zM1126 -1zM1069 576v35q0 86 -56.5 147.5t-144.5 61.5q-89 0 -144.5 -62.5t-55.5 -151.5v-30h401zM1069 424v32h-401v-32q0 -294 200 -294t201 294zM539 421v35h-65q-209 0 -209 -150q0 -66 38 -120q39 -54 104 -54t102 42
q25 27 38 93q0 10 -8 154zM1334 -589q101 -71 101 -180t-69.5 -178t-165.5 -69t-165 69t-69 162t61 160q-101 21 -176 101l71 75q76 -83 234 -83q147 0 147 93q0 67 -116 67h-106q-98 0 -161.5 46t-63.5 138q0 94 79.5 141.5t190.5 47.5q187 0 292 -110l-69 -77
q-77 84 -229 84t-152 -94q0 -70 116 -70h112q218 0 218 -173q0 -99 -80 -150zM1273 -710q0 75 -75 75t-75 -75t75 -75t75 75zM1306 -888q42 44 43 96q0 52 -22 88q0 -62 -37.5 -98.5t-91.5 -36.5t-90 36.5t-39 88.5q-17 -32 -17 -82t44 -92t106 -42t104 42z" />
    <glyph glyph-name="k1t1r3" horiz-adv-x="1605" 
d="M1517.5 507.5q89.5 -68.5 89.5 -198.5t-72 -210.5t-208 -80.5q-56 0 -101 18v118q40 -24 82 -24q164 0 164 178q0 148 -194 148h-73v-37q0 -401 -330 -401q-202 0 -265 131q-45 -131 -207 -131q-125 0 -191.5 84t-66.5 204t87 195t213 75h94v40q0 138 94 232.5t243 94.5
t239 -96t90 -231v-40h92q131 0 220.5 -68.5zM1069 576v35q0 86 -56.5 147.5t-144.5 61.5q-89 0 -144.5 -62.5t-55.5 -151.5v-30h401zM1069 424v32h-401v-32q0 -294 200 -294t201 294zM539 421v35h-65q-209 0 -209 -150q0 -66 38.5 -120t103.5 -54t102.5 41.5t37.5 93.5
q0 2 -8 154zM1460 -110l-72 -77q-78 84 -247 84q-138 0 -138 -91q0 -73 118 -73h113q86 0 156 -43t70 -137q0 -96 -92.5 -143.5t-207.5 -47.5q-275 0 -375 107.5t-100 227.5q0 173 101 308l77 -61q-84 -98 -84 -246q0 -90 86.5 -164.5t292.5 -74.5q66 0 126 27.5t60 73.5
q0 67 -118 67h-108q-94 0 -161.5 42t-67.5 141q0 94 83 142.5t191 48.5q188 0 297 -111z" />
    <glyph glyph-name="k1t1r3u1" horiz-adv-x="1605" 
d="M1517.5 507.5q89.5 -68.5 89.5 -198.5t-72 -210.5t-208 -80.5q-56 0 -101 18v118q40 -24 82 -24q164 0 164 178q0 148 -194 148h-73v-37q0 -401 -330 -401q-202 0 -265 131q-45 -131 -207 -131q-125 0 -191.5 84t-66.5 204t87 195t213 75h94v40q0 138 94 232.5t243 94.5
t239 -96t90 -231v-40h92q131 0 220.5 -68.5zM1069 576v35q0 86 -56.5 147.5t-144.5 61.5q-89 0 -144.5 -62.5t-55.5 -151.5v-30h401zM1069 424v32h-401v-32q0 -294 200 -294t201 294zM539 421v35h-65q-209 0 -209 -150q0 -66 38.5 -120t103.5 -54t102.5 41.5t37.5 93.5
q0 2 -8 154zM1460 -110l-72 -77q-78 84 -217 84q-168 0 -168 -93q0 -71 118 -71h113q86 0 156 -43.5t70 -127.5q0 -108 -114 -162q87 -62 87 -160t-61.5 -160.5t-149.5 -62.5t-150 62.5t-62 144.5t52 143q-172 20 -274.5 104.5t-102.5 236.5q0 160 101 297l77 -61
q-84 -99 -84 -246q0 -115 113.5 -177t270.5 -62q63 0 122 27t59 74q0 67 -118 67h-108q-91 0 -160 42.5t-69 140.5q0 96 84.5 143t189.5 47q188 0 297 -110zM1346 -771q0 51 -36.5 87.5t-87.5 36.5q-52 0 -87.5 -36.5t-35.5 -87.5q0 -52 35.5 -87.5t87.5 -35.5
q51 0 87.5 35.5t36.5 87.5z" />
    <glyph glyph-name="k1t1r3u2" horiz-adv-x="1605" 
d="M1517.5 507.5q89.5 -68.5 89.5 -198.5t-72 -210.5t-208 -80.5q-56 0 -101 18v118q40 -24 82 -24q164 0 164 178q0 148 -194 148h-73v-37q0 -401 -330 -401q-202 0 -265 131q-45 -131 -207 -131q-125 0 -191.5 84t-66.5 204t87 195t213 75h94v40q0 138 94 232.5t243 94.5
t239 -96t90 -231v-40h92q131 0 220.5 -68.5zM1069 576v35q0 86 -56.5 147.5t-144.5 61.5q-89 0 -144.5 -62.5t-55.5 -151.5v-30h401zM1069 424v32h-401v-32q0 -294 200 -294t201 294zM539 421v35h-65q-209 0 -209 -150q0 -66 38.5 -120t103.5 -54t102.5 41.5t37.5 93.5
q0 2 -8 154zM1460 -109l-72 -77q-78 84 -214 84q-171 0 -171 -93q0 -71 118 -71h113q86 0 156 -44t70 -136t-98 -146q98 -70 98 -178t-69 -177t-166 -69t-166 69t-69 159t58 158q-363 52 -363 331q0 169 101 305l77 -61q-84 -99 -84 -246q0 -123 119.5 -181t264.5 -58
q63 0 122 27t59 74q0 67 -118 67h-108q-91 0 -160 42.5t-69 139.5q0 96 83.5 143t197.5 48q183 -1 290 -110zM1297 -710q-1 75 -75 75t-74 -75t74 -75t75 75zM1331 -888q43 44 43 96t-23 88q0 -63 -37.5 -99t-90.5 -36t-89.5 36.5t-40.5 88.5q-17 -32 -17 -82t44.5 -92
t105.5 -42q62 0 105 42z" />
    <glyph glyph-name="k1nh" horiz-adv-x="1605" 
d="M1517.5 507.5q89.5 -68.5 89.5 -198.5t-72 -210.5t-208 -80.5q-56 0 -101 18v118q40 -24 82 -24q164 0 164 178q0 148 -194 148h-73v-37q0 -401 -330 -401q-202 0 -265 131q-45 -131 -207 -131q-125 0 -191.5 84t-66.5 204t87 195t213 75h94v40q0 138 94 232.5t243 94.5
t239 -96t90 -231v-40h92q131 0 220.5 -68.5zM1069 576v35q0 86 -56.5 147.5t-144.5 61.5q-89 0 -144.5 -62.5t-55.5 -151.5v-30h401zM1069 424v32h-401v-32q0 -294 200 -294t201 294zM539 421v35h-65q-209 0 -209 -150q0 -66 38.5 -120t103.5 -54t102.5 41.5t37.5 93.5
q0 2 -8 154zM1585 -311q0 -229 -194 -330l-59 86q143 75 143 246q0 89 -48 148t-132 59q-108 0 -108 -131v-388h-115v388q0 133 -136 133q-130 0 -130 -133v-388h-121v388q0 131 -169 131q-73 0 -126 -50.5t-73 -126.5q41 36 115 36t126 -56.5t52 -137.5t-55.5 -139.5
t-141.5 -58.5q-209 0 -209 277q0 150 91 255.5t239 105.5t209 -101q54 101 195 101q143 0 190 -98q46 98 169 98q138 0 213 -91t75 -223zM410 -534q87 0 87 98q0 97 -85 97q-88 0 -88 -98q0 -97 86 -97z" />
    <glyph glyph-name="k1nhu1" horiz-adv-x="1607" 
d="M1517.5 507.5q89.5 -68.5 89.5 -198.5t-72 -210.5t-208 -80.5q-56 0 -101 18v118q40 -24 82 -24q164 0 164 178q0 148 -194 148h-73v-37q0 -401 -330 -401q-202 0 -265 131q-45 -131 -207 -131q-125 0 -191.5 84t-66.5 204t87 195t213 75h94v40q0 138 94 232.5t243 94.5
t239 -96t90 -231v-40h92q131 0 220.5 -68.5zM1069 576v35q0 86 -56.5 147.5t-144.5 61.5q-89 0 -144.5 -62.5t-55.5 -151.5v-30h401zM1069 424v32h-401v-32q0 -294 200 -294t201 294zM539 421v35h-65q-209 0 -209 -150q0 -66 38.5 -120t103.5 -54t102.5 41.5t37.5 93.5
q0 2 -8 154zM1521.5 -98q98.5 -96 98.5 -228t-62 -219.5t-162 -87.5t-147 64.5t-47 164.5t56.5 177t159.5 77h15q-29 45 -153 45q-147 0 -147 -129v-385h-104v381q0 54 -38 94.5t-94 40.5q-59 0 -94 -41q-36 -42 -36 -97l3 -378h-111v385q0 131 -165 131q-69 0 -121 -50.5
t-71 -125.5q42 33 112 33t119 -55t49 -136t-53 -140t-133 -59q-199 0 -199 278q0 150 85.5 254t225.5 104t202 -100q46 100 184 100t187 -105q64 103 203 103t237.5 -96zM1514 -358q0 51 -13 91q-17 11 -74 11t-92.5 -44t-35.5 -98q0 -130 94 -130q121 0 121 170zM476 -438
q0 99 -82 99t-82 -99q0 -97 82 -97t82 97z" />
    <glyph glyph-name="k1nhu2" horiz-adv-x="1637" 
d="M1517.5 507.5q89.5 -68.5 89.5 -198.5t-72 -210.5t-208 -80.5q-56 0 -101 18v118q40 -24 82 -24q164 0 164 178q0 148 -194 148h-73v-37q0 -401 -330 -401q-202 0 -265 131q-45 -131 -207 -131q-125 0 -191.5 84t-66.5 204t87 195t213 75h94v40q0 138 94 232.5t243 94.5
t239 -96t90 -231v-40h92q131 0 220.5 -68.5zM1069 576v35q0 86 -56.5 147.5t-144.5 61.5q-89 0 -144.5 -62.5t-55.5 -151.5v-30h401zM1069 424v32h-401v-32q0 -294 200 -294t201 294zM539 421v35h-65q-209 0 -209 -150q0 -66 38.5 -120t103.5 -54t102.5 41.5t37.5 93.5
q0 2 -8 154zM1524 -138q122 -17 188.5 -113t66.5 -244q0 -145 -86.5 -260t-234.5 -115q-89 0 -171 56l40 89q61 -47 131 -47q103 0 166.5 84.5t63.5 199.5q0 72 -34 139.5t-91 90.5q19 -50 19 -111q0 -265 -184 -265q-81 0 -130 71t-49 159q0 86 52.5 170t136.5 93
q-40 42 -118 42t-118 -37.5t-40 -97.5v-393h-108v385q0 57 -39 99t-99 42q-58 0 -93.5 -42t-35.5 -99v-385h-115v393q0 133 -168 133q-71 0 -124 -51.5t-72 -128.5q40 35 112 35q74 0 124 -54q51 -55 51 -137q0 -87 -54 -146t-138 -59q-207 0 -207 280q0 153 90 259.5
t234 106.5t213 -105q47 105 184 105t191 -105q12 47 72.5 77.5t117.5 30.5q211 0 256 -145zM1494 -389q0 89 -32 152h-18q-56 0 -95 -54t-39 -108t24.5 -96t63.5 -42q96 0 96 148zM454 -442q0 100 -84 100t-85 -100q1 -100 85 -100t84 100z" />
    <glyph glyph-name="k1th1" horiz-adv-x="2827" 
d="M2221 817q96 -76 152 -207.5t56 -230.5q0 -146 -95 -272.5t-235 -126.5q-137 0 -233 118.5t-96 260.5t59 260.5t160 193.5q-51 11 -118 11q-150 0 -242.5 -103t-92.5 -250v-470h-127v284q0 61 -39.5 113.5t-96.5 52.5h-68v-42q0 -432 -330 -432q-202 0 -265 137
q-45 -137 -207 -137q-128 0 -193 88.5t-65 214.5q0 130 85 212t215 82h94v42q0 145 94 236t243 91t239 -92t90 -235v-42h83q41 0 121 -49q0 189 142 303.5t363 114.5q130 0 185 -55q54 55 249 55q228 0 354.5 -151.5t126.5 -340.5q0 -316 -236 -474l-76 78q182 111 182 384
q0 170 -97 278.5t-254 108.5q-79 0 -127 -9zM2289 379q0 207 -190 375q-89 -63 -143 -167t-54 -216t53 -194t144 -82q89 0 139.5 90t50.5 194zM1069 574v37q0 90 -56 151t-145 61t-144 -62t-55 -155v-32h400zM1069 417v34h-400v-37q0 -321 200 -321t200 324zM539 412v39h-65
q-209 0 -209 -172q0 -71 37.5 -127.5t103.5 -56.5t103.5 45.5t37.5 99.5q0 18 -8 172z" />
    <glyph glyph-name="k1th1u1" horiz-adv-x="2550" 
d="M2553 472q0 -472 -494 -472h-1600q-58 0 -107.5 -31.5t-49.5 -87.5t48 -86.5t109 -30.5h2075v-115h-2096q-114 0 -190.5 60t-76.5 171t76.5 174.5t190.5 63.5h1590q397 0 397 357q0 145 -74.5 247t-231.5 102q-70 0 -94 -8q83 -68 131 -161.5t48 -170.5
q0 -116 -85.5 -221t-214.5 -105t-215.5 97t-86.5 229q0 189 189 332q-36 9 -94 9q-135 0 -213 -72t-78 -192v-389h-126v237q0 49 -33 83t-84 34h-54v-26q0 -344 -303 -344q-173 0 -239 103q-44 -103 -173 -103t-188 72q-59 74 -59 178t80 167.5t195 63.5h77v30q0 120 86 198
t223 78t219 -79.5t82 -196.5v-30h68q54 0 103 -27q3 153 132 243t325 90q100 0 165 -48q69 48 234 48q199 0 308 -138t109 -333zM2066 484q0 135 -164 278q-169 -121 -169 -278q0 -94 45.5 -158.5t123.5 -64.5q81 0 122.5 67.5t41.5 155.5zM975 662q0 70 -49 116
q-48 46 -126 46t-126 -45.5t-48 -118.5v-23h349v25zM975 505v21h-349v-21q0 -246 178 -246q171 0 171 246zM499 502v24h-52q-182 0 -182 -122q0 -56 32.5 -99.5t88.5 -43.5t88 33t32 73q0 2 -7 135z" />
    <glyph glyph-name="k1th1u2" horiz-adv-x="2541" 
d="M2546 258q0 -258 -379 -258h-1713q-150 0 -150 -108q0 -53 46 -88t104 -35h2069v-115h-2088q-114 0 -191.5 66.5t-77.5 171.5q0 103 77.5 163.5t190.5 60.5l1716 -3q260 0 260 145q0 57 -42.5 99t-99.5 42h-93v115h88q62 0 104.5 36.5t42.5 94.5q0 107 -82 142.5
t-205 35.5t-153 -11q156 -142 156 -304t-93.5 -249t-216.5 -87t-209 84t-86 239q0 188 195 323q-58 11 -75 11q-326 0 -326 -236v-421h-129v271q0 69 -66 83h-19v-26q0 -345 -300 -345q-173 0 -236 103q-45 -103 -173 -103t-187.5 71.5t-59.5 177.5t78 169t197 63h76v30
q0 118 86 197.5t221 79.5t216.5 -80.5t81.5 -196.5v-30h36q21 0 47 -19l2 19q15 144 144.5 225.5t289.5 81.5q161 0 223 -43q86 43 281 43q422 0 422 -284q0 -155 -138 -199q138 -44 138 -202zM1983 495q0 137 -140 272q-81 -35 -136.5 -110t-55.5 -168t46.5 -143t116.5 -50
q68 0 118.5 51.5t50.5 147.5zM970 636v26q0 70 -49 116t-125 46t-125.5 -47t-49.5 -118v-23h349zM970 504v22h-349v-24q0 -246 178 -246q171 0 171 248zM496 502v24h-51q-183 0 -183 -125q0 -51 33 -97t88 -46q57 0 89 36t32 81q0 4 -8 127z" />
    <glyph glyph-name="k1th1r1" horiz-adv-x="2827" 
d="M1069 574v37q0 90 -56 151t-145 61t-144 -62t-55 -155v-32h400zM1069 417v34h-400v-37q0 -321 200 -321t200 324zM539 412v39h-65q-209 0 -209 -172q0 -71 37.5 -127.5t103.5 -56.5t103.5 45.5t37.5 99.5q0 18 -8 172zM1288 574q34 0 121 -46q0 189 142 302t363 113
q103 0 185 -61q88 61 253 61q233 0 355 -157.5t122 -394.5q0 -316 -190.5 -566t-511.5 -250q-131 0 -254 50.5t-123 162.5q0 90 96 130t200 40t227.5 -46t142.5 -126q128 88 204.5 261t76.5 356q0 184 -86 303.5t-273 119.5q-63 0 -111 -18q89 -76 145.5 -201.5t56.5 -224.5
q0 -139 -95 -259.5t-235 -120.5t-234.5 114t-94.5 248t59 248.5t160 191.5q-45 19 -118 19q-150 0 -242.5 -101t-92.5 -248v-474h-127v288q0 64 -43.5 113.5t-92.5 49.5h-68v-42q0 -432 -330 -432q-202 0 -265 137q-45 -137 -207 -137q-128 0 -193 88.5t-65 214.5
q0 130 85 212t215 82h94v42q0 145 94 236t243 91t239 -92t90 -235v-42h83zM2289 382q0 195 -188 362q-199 -144 -199 -362q0 -115 53 -192.5t144 -77.5t143 92q47 75 47 178zM2289 -249q0 42 -86.5 64.5t-150.5 22.5q-164 0 -164 -54q0 -45 82 -69.5t139 -24.5q180 0 180 61
z" />
    <glyph glyph-name="k1th1r2" horiz-adv-x="2826" 
d="M1069 574v37q0 90 -56 151t-145 61t-144 -62t-55 -155v-32h400zM1069 417v34h-400v-37q0 -321 200 -321t200 324zM539 412v39h-65q-209 0 -209 -172q0 -71 37.5 -127.5t103.5 -56.5t103.5 45.5t37.5 99.5q0 18 -8 172zM2289 382q0 195 -188 362q-199 -144 -199 -362
q0 -115 53 -192.5t144 -77.5t143 92q47 75 47 178zM2830 387q0 -336 -198 -576t-528 -240q-428 0 -428 213q0 83 73 128.5t160 45.5q155 0 213 -93q40 96 174 96t192 -125q99 101 153.5 268.5t54.5 310.5q0 164 -82.5 287.5t-275.5 123.5q-63 0 -111 -18
q89 -76 145.5 -201.5t56.5 -224.5q0 -139 -95 -259.5t-235 -120.5t-234.5 114t-94.5 248t59 248.5t160 191.5q-45 19 -118 19q-150 0 -242.5 -101t-92.5 -248v-474h-127v288q0 64 -44 113.5t-92 49.5h-68v-42q0 -432 -330 -432q-202 0 -265 137q-45 -137 -207 -137
q-128 0 -193 88.5t-65 214.5q0 130 85 212t215 82h94v42q0 145 94 236t243 91t239 -92t90 -235v-42h83q34 0 121 -46q0 189 142 302t363 113q103 0 185 -61q94 61 253 61q238 0 358 -158.5t120 -397.5zM2396 -243q-12 91 -105 91q-45 0 -76.5 -29.5t-31.5 -71.5v-28h-113v40
q-4 42 -49 65.5t-91 23.5q-122 0 -122 -66q0 -103 272 -103q193 0 316 78z" />
    <glyph glyph-name="k1th1r3" horiz-adv-x="3067" 
d="M1341 574v37q0 90 -56 151t-145 61t-144 -62t-55 -155v-32h400zM1341 417v34h-400v-37q0 -321 200 -321t200 324zM811 412v39h-65q-209 0 -209 -172q0 -71 37.5 -127.5t103.5 -56.5t103.5 45.5t37.5 99.5q0 18 -8 172zM1545 451h-68v-42q0 -432 -330 -432
q-202 0 -265 137q-45 -137 -207 -137q-128 0 -193 88.5t-65 214.5q0 130 85 212t215 82h94v42q0 145 94 236t243 91t239 -92t90 -235v-42h86q31 0 117 -50q0 192 134 305.5t352 113.5q125 0 187 -62q59 62 257 62q199 0 329 -158t130 -374q0 -783 -1450 -783
q-713 0 -1092.5 179.5t-379.5 662.5q0 143 35 242.5t122 230.5l86 -84q-123 -199 -123 -389q0 -418 353 -571.5t1021 -153.5t985.5 180t317.5 462q0 177 -106.5 311t-247.5 134q-44 0 -111 -25q98 -83 149.5 -203t51.5 -225q0 -146 -94.5 -273t-234.5 -127
q-138 0 -233.5 120t-95.5 280q0 256 221 424q-63 21 -113 21q-151 0 -235.5 -102t-84.5 -252v-470h-130v284q0 65 -42 116t-93 51zM2541 379q0 197 -188 364q-199 -144 -199 -364q0 -120 53 -202t144 -82q95 0 142.5 89t47.5 195z" />
    <glyph glyph-name="k1th1r3u1" horiz-adv-x="3067" 
d="M2813 -493q47 48 47 116t-47 114.5t-114 46.5t-115 -46.5t-48 -114.5t48 -116t115 -48t114 48zM2541 379q0 197 -188 364q-199 -144 -199 -364q0 -120 53 -202t144 -82q97 0 143.5 89t46.5 195zM1545 451h-68v-42q0 -432 -330 -432q-202 0 -265 137q-45 -137 -207 -137
q-128 0 -193 88.5t-65 214.5q0 130 85 212t215 82h94v42q0 145 94 236t243 91t239 -92t90 -235v-42h86q31 0 117 -50q0 192 134 305.5t352 113.5q125 0 187 -62q63 62 257 62q199 0 329 -158t130 -374q0 -340 -273 -532q76 -30 126.5 -99.5t50.5 -170.5t-80 -182t-194 -81
t-194.5 81t-80.5 195q0 52 17 97q-326 -91 -822 -91q-713 0 -1092.5 179.5t-379.5 662.5q0 143 35 242.5t122 230.5l86 -84q-123 -199 -123 -389q0 -418 353 -571.5t1021 -153.5q663 0 983 180t320 462q0 177 -106.5 311t-247.5 134q-44 0 -111 -25q98 -83 149.5 -203
t51.5 -225q0 -146 -90 -273t-239 -127q-138 0 -233.5 120t-95.5 280q0 256 221 424q-63 21 -113 21q-151 0 -235.5 -102t-84.5 -252v-470h-130v284q0 65 -42 116t-93 51zM811 412v39h-65q-209 0 -209 -172q0 -71 37.5 -127.5t103.5 -56.5t103.5 45.5t37.5 99.5q0 18 -8 172z
M1341 417v34h-400v-37q0 -321 200 -321t200 324zM1341 574v37q0 90 -56 151t-145 61t-144 -62t-55 -155v-32h400z" />
    <glyph glyph-name="k1th1r3u2" horiz-adv-x="3067" 
d="M2876 -512q56 58 57 124q0 66 -29 113q0 -78 -49 -127t-118 -49t-117 48t-51 114q-21 -40 -21 -103t56 -119.5t136 -56.5t136 56zM2805.5 -350.5q29.5 28.5 29.5 68.5t-29.5 68.5t-69.5 28.5t-68.5 -28.5t-28.5 -68.5t28.5 -68.5t68.5 -28.5t69.5 28.5zM2541 379
q0 197 -188 364q-199 -144 -199 -364q0 -120 55 -202t142 -82q95 0 142.5 89t47.5 195zM1545 451h-68v-42q0 -432 -330 -432q-202 0 -265 137q-45 -137 -207 -137q-128 0 -193 88.5t-65 214.5q0 130 85 212t215 82h94v42q0 145 94 236t243 91t239 -92t90 -235v-42h86
q31 0 117 -50q0 192 134 305.5t352 113.5q125 0 187 -62q67 62 257 62q199 0 329 -158t130 -374q0 -311 -229 -499q89 -31 147 -108.5t58 -191.5t-89.5 -203.5t-215.5 -89.5t-215.5 89.5t-89.5 215.5q0 50 16 98q-329 -94 -832 -94q-713 0 -1092.5 179.5t-379.5 662.5
q0 143 35 242.5t122 230.5l86 -84q-123 -199 -123 -389q0 -418 352.5 -571.5t1021.5 -153.5q668 0 985.5 180t317.5 462q0 177 -106.5 311t-247.5 134q-44 0 -111 -25q98 -83 149.5 -203t51.5 -225q0 -146 -94.5 -273t-234.5 -127q-139 0 -234 120t-95 280q0 256 221 424
q-63 21 -113 21q-151 0 -235.5 -102t-84.5 -252v-470h-130v284q0 65 -42 116t-93 51zM811 412v39h-65q-209 0 -209 -172q0 -71 37.5 -127.5t103.5 -56.5t103.5 44.5t37.5 100.5q0 24 -8 172zM1341 417v34h-400v-37q0 -321 200 -321t200 324zM1341 574v37q0 90 -56 151
t-145 61t-144 -62t-55 -155v-32h400z" />
    <glyph glyph-name="k1n1" horiz-adv-x="1605" 
d="M1517.5 510.5q89.5 -68.5 89.5 -198.5t-72 -210.5t-208 -80.5q-56 0 -101 18v118q40 -24 82 -24q164 0 164 178q0 148 -194 148h-73v-37q0 -401 -330 -401q-202 0 -265 131q-45 -131 -207 -131q-125 0 -191.5 84t-66.5 204t87 195t213 75h94v40q0 138 94 231t243 93
t239 -94.5t90 -229.5v-40h92q131 0 220.5 -68.5zM1069 579v35q0 86 -56.5 147.5t-144.5 61.5q-89 0 -144.5 -62.5t-55.5 -151.5v-30h401zM1069 427v32h-401v-32q0 -294 200 -294t201 294zM539 424v35h-65q-209 0 -209 -150q0 -66 38.5 -120t103.5 -54t102.5 41.5t37.5 93.5
q0 2 -8 154zM1472 -311q0 -234 -204 -330l-54 86q148 69 148 251q0 86 -50.5 144t-136.5 58q-47 0 -77.5 -41t-30.5 -90v-388h-113v388q0 51 -36 91t-88 40q-82 0 -130 -61.5t-48 -147.5q0 -180 154 -246l-66 -84q-201 96 -201 325q0 130 79.5 223.5t214.5 93.5
q56 0 109.5 -30.5t67.5 -82.5q32 115 168 115t215 -93.5t79 -220.5z" />
    <glyph glyph-name="k1n1u1" horiz-adv-x="1605" 
d="M1517.5 509.5q89.5 -68.5 89.5 -198.5t-72 -210.5t-208 -80.5q-56 0 -101 18v118q40 -24 82 -24q164 0 164 178q0 148 -194 148h-73v-37q0 -401 -330 -401q-202 0 -265 131q-45 -131 -207 -131q-125 0 -191.5 84t-66.5 204t87 195t213 75h94v40q0 138 94 231.5t243 93.5
t239 -95t90 -230v-40h92q131 0 220.5 -68.5zM1069 578v35q0 86 -56.5 147.5t-144.5 61.5q-89 0 -144.5 -62.5t-55.5 -151.5v-30h401zM1069 426v32h-401v-32q0 -294 200 -294t201 294zM539 423v35h-65q-209 0 -209 -150q0 -66 38.5 -120t103.5 -54t102.5 41.5t37.5 93.5
q0 2 -8 154zM1470 -96.5q103 -97.5 103 -229.5t-63 -222t-171 -90t-157 72t-49 164t55 167.5t163 75.5h18q-56 57 -155 57q-164 0 -164 -134v-385h-103v390q0 55 -38.5 92t-106.5 37t-119.5 -62.5t-51.5 -146.5q0 -183 141 -241l-52 -89q-197 91 -197 325q0 132 81 224.5
t212 92.5t187 -99q66 99 215 99t252 -97.5zM1465 -358q0 52 -15 91q-8 5 -74 5t-104 -44.5t-38 -92.5t25.5 -89.5t74.5 -41.5q131 0 131 172z" />
    <glyph glyph-name="k1n1u2" horiz-adv-x="1612" 
d="M1517.5 510.5q89.5 -68.5 89.5 -198.5t-72 -210.5t-208 -80.5q-56 0 -101 18v118q40 -24 82 -24q164 0 164 178q0 148 -194 148h-73v-37q0 -401 -330 -401q-202 0 -265 131q-45 -131 -207 -131q-125 0 -191.5 84t-66.5 204t87 195t213 75h94v40q0 138 94 231t243 93
t239 -94.5t90 -229.5v-40h92q131 0 220.5 -68.5zM1069 579v35q0 86 -56.5 147.5t-144.5 61.5q-89 0 -144.5 -62.5t-55.5 -151.5v-30h401zM1069 427v32h-401v-32q0 -294 200 -294t201 294zM539 424v35h-65q-209 0 -209 -150q0 -66 38.5 -120t103.5 -54t102.5 41.5t37.5 93.5
q0 2 -8 154zM1581 -251q70 -97 70 -249t-97 -267t-244 -115q-101 0 -185 59l44 88q64 -49 138 -49q108 0 176.5 86t68.5 184t-34 164.5t-93 88.5q19 -54 19 -110q0 -119 -49 -197.5t-145 -78.5t-148.5 71.5t-52.5 165.5t58 177t146 92q-37 38 -147 38q-153 0 -153 -131v-393
h-103v393q0 57 -38.5 94t-106.5 37t-120 -64.5t-52 -147.5q0 -180 135 -246l-49 -88q-195 91 -195 327q0 132 81.5 227t210.5 95t186 -84q66 84 199 84q218 0 280 -138q130 -17 200 -113zM1348 -391q0 86 -33 150q-10 2 -21 2q-63 0 -104.5 -51.5t-41.5 -111.5t25.5 -102
t69.5 -42q105 0 105 155z" />
    <glyph glyph-name="k1m1" horiz-adv-x="1605" 
d="M1517.5 510.5q89.5 -68.5 89.5 -198.5t-72 -210.5t-208 -80.5q-56 0 -101 18v118q40 -24 82 -24q164 0 164 178q0 148 -194 148h-73v-37q0 -401 -330 -401q-202 0 -265 131q-45 -131 -207 -131q-125 0 -191.5 84t-66.5 204t87 195t213 75h94v40q0 138 94 231t243 93
t239 -94.5t90 -229.5v-40h92q131 0 220.5 -68.5zM1069 579v35q0 86 -56.5 147.5t-144.5 61.5q-89 0 -144.5 -62.5t-55.5 -151.5v-30h401zM1069 427v32h-401v-32q0 -294 200 -294t201 294zM539 424v35h-65q-209 0 -209 -150q0 -66 38.5 -120t103.5 -54t102.5 41.5t37.5 93.5
q0 2 -8 154zM1320 -334v-286h-617v282q0 339 312 339q305 0 305 -335zM1217 -334q0 183 -131 234q40 -56 40 -122q0 -157 -170 -305h261v193zM1020 -217q0 108 -68 108q-59 0 -103.5 -55.5t-44.5 -169.5v-181q216 145 216 298z" />
    <glyph glyph-name="k1m1u1" horiz-adv-x="1605" 
d="M1517.5 510.5q89.5 -68.5 89.5 -198.5t-72 -210.5t-208 -80.5q-56 0 -101 18v118q40 -24 82 -24q164 0 164 178q0 148 -194 148h-73v-37q0 -401 -330 -401q-202 0 -265 131q-45 -131 -207 -131q-125 0 -191.5 84t-66.5 204t87 195t213 75h94v40q0 138 94 231t243 93
t239 -94.5t90 -229.5v-40h92q131 0 220.5 -68.5zM1069 579v35q0 86 -56.5 147.5t-144.5 61.5q-89 0 -144.5 -62.5t-55.5 -151.5v-30h401zM1069 427v32h-401v-32q0 -294 200 -294t201 294zM539 424v35h-65q-209 0 -209 -150q0 -66 38.5 -120t103.5 -54t102.5 41.5t37.5 93.5
q0 2 -8 154zM1320 -334v-287h-56q51 -59 51 -143t-61.5 -146.5t-148.5 -62.5t-149.5 62.5t-62.5 146.5t54 143h-244v282q0 339 312 339q305 0 305 -334zM1217 -334q0 182 -131 234q40 -57 40 -123q0 -157 -170 -305h261v194zM1020 -218q0 108 -68 108q-59 0 -103.5 -55
t-44.5 -169v-182q216 146 216 298zM1229 -762q0 52 -36.5 89t-88.5 37t-88 -37t-36 -89q0 -51 36 -86.5t88 -35.5t88.5 35.5t36.5 86.5z" />
    <glyph glyph-name="k1m1u2" horiz-adv-x="1605" 
d="M1517.5 510.5q89.5 -68.5 89.5 -198.5t-72 -210.5t-208 -80.5q-56 0 -101 18v118q40 -24 82 -24q164 0 164 178q0 148 -194 148h-73v-37q0 -401 -330 -401q-202 0 -265 131q-45 -131 -207 -131q-125 0 -191.5 84t-66.5 204t87 195t213 75h94v40q0 138 94 231t243 93
t239 -94.5t90 -229.5v-40h92q131 0 220.5 -68.5zM1069 579v35q0 86 -56.5 147.5t-144.5 61.5q-89 0 -144.5 -62.5t-55.5 -151.5v-30h401zM1069 427v32h-401v-32q0 -294 200 -294t201 294zM539 424v35h-65q-209 0 -209 -150q0 -66 38.5 -120t103.5 -54t102.5 41.5t37.5 93.5
q0 2 -8 154zM1320 -333v-286h-66q64 -69 64 -163t-69 -163.5t-167 -69.5t-166 69q-68 70 -68 164t64 163h-209v282q0 339 312 339q305 0 305 -335zM1217 -333q0 183 -131 234q40 -56 40 -122q0 -157 -170 -305h261v193zM1020 -216q0 108 -68 108q-59 0 -103.5 -55.5
t-44.5 -169.5v-181q216 145 216 298zM1081 -784q75 0 75 75t-75 75t-75 -75t75 -75zM1188 -886.5q43 42.5 43 94.5t-21 89q0 -61 -38.5 -98t-91.5 -37t-89.5 36.5t-38.5 88.5q-18 -31 -18 -81t44 -92.5t106 -42.5q61 0 104 42.5z" />
    <glyph glyph-name="k1r3" horiz-adv-x="1872" 
d="M467 82q-55 82 -55 199t89 205t211 88h94v42q0 140 96.5 233.5t236.5 93.5t236.5 -90.5t96.5 -236.5v-42h94q129 0 219 -104t90 -236q0 -286 -227.5 -445.5t-590.5 -159.5q-443 0 -677.5 217t-234.5 574q0 299 179 523l98 -60q-160 -187 -160 -471q0 -292 200.5 -476.5
t578.5 -184.5q307 0 503 126.5t196 350.5q0 81 -56.5 152.5t-138.5 71.5h-73v-42q0 -170 -86.5 -301t-248.5 -131t-260 137q-69 -137 -221 -137q-119 0 -189 104zM1336 574v38q0 90 -56 150.5t-145 60.5q-88 0 -143.5 -62t-55.5 -154v-33h400zM1336 417v35h-400v-37
q0 -124 50 -223t151 -99q105 0 152 87.5t47 236.5zM806 412v40h-64q-84 0 -146 -51.5t-62 -125.5t39 -126.5t97 -52.5q59 0 101 42t42 105q0 31 -7 169z" />
    <glyph glyph-name="k1r3u1" horiz-adv-x="1872" 
d="M1690.5 -566q46.5 48 46.5 115t-46.5 114t-114.5 47t-115.5 -47t-47.5 -114t47.5 -115t115.5 -48t114.5 48zM1674 -194q78 -29 127 -99t49 -171t-80 -182t-194 -81t-193.5 81t-79.5 194q0 56 19 105l1 1q-122 -25 -266 -25q-443 0 -677.5 217t-234.5 574q0 299 179 523
l98 -60q-160 -187 -160 -471q0 -292 200.5 -476.5t578.5 -184.5q307 0 503 126.5t196 350.5q0 81 -56.5 152.5t-138.5 71.5h-73v-42q0 -170 -86.5 -301t-248.5 -131t-260 137q-69 -137 -221 -137q-119 0 -181.5 93t-62.5 210t89 205t211 88h94v42q0 140 96.5 233.5
t236.5 93.5t236.5 -90.5t96.5 -236.5v-42h94q129 0 219 -104t90 -236q0 -270 -203 -427zM806 412v40h-64q-84 0 -146 -51.5t-62 -125.5t39 -126.5t97 -52.5q59 0 101 42t42 105q0 31 -7 169zM1336 417v35h-400v-37q0 -124 50 -223t151 -99q105 0 152 87.5t47 236.5z
M1336 574v38q0 90 -56 150.5t-145 60.5q-88 0 -143.5 -62t-55.5 -154v-33h400z" />
    <glyph glyph-name="k1r3u2" horiz-adv-x="1872" 
d="M1683.5 -618.5q56.5 56.5 56.5 122.5t-29 112q0 -72 -54.5 -123t-113.5 -51q-69 0 -117 48t-50 114q-22 -42 -22 -88q0 -78 56.5 -134.5t136.5 -56.5t136.5 56.5zM1611.5 -458q29.5 29 29.5 69t-29.5 68.5t-69.5 28.5t-69 -28.5t-29 -68.5t29 -69t69 -29t69.5 29z
M1664 -201q83 -35 134.5 -112.5t51.5 -186.5t-88 -198.5t-215 -89.5q-133 0 -223 90t-90 202q0 84 36 141q-100 -16 -213 -16q-439 0 -675.5 217t-236.5 574q0 299 179 523l98 -60q-160 -187 -160 -471q0 -292 200.5 -476.5t578.5 -184.5q307 0 503 126.5t196 350.5
q0 81 -56.5 152.5t-138.5 71.5h-73v-42q0 -170 -86.5 -301t-248.5 -131t-260 137q-69 -137 -221 -137q-119 0 -181.5 93t-62.5 210t89 205t211 88h94v42q0 140 96.5 233.5t236.5 93.5t236.5 -90.5t96.5 -236.5v-42h94q129 0 219 -104t90 -236q0 -276 -212 -434zM806 412v40
h-64q-84 0 -146 -51.5t-62 -125.5t39 -126.5t97 -52.5q59 0 101 42t42 105q0 31 -7 169zM1336 417v35h-400v-37q0 -124 50 -223t151 -99q105 0 152 87.5t47 236.5zM1336 574v38q0 90 -56 150.5t-145 60.5q-88 0 -143.5 -62t-55.5 -154v-33h400z" />
    <glyph glyph-name="k1l3" horiz-adv-x="1605" 
d="M1517.5 510.5q89.5 -68.5 89.5 -198.5t-72 -210.5t-208 -80.5q-56 0 -101 18v118q40 -24 82 -24q164 0 164 178q0 148 -194 148h-73v-37q0 -401 -330 -401q-202 0 -265 131q-45 -131 -207 -131q-125 0 -191.5 84t-66.5 204t87 195t213 75h94v40q0 138 94 231t243 93
t239 -94.5t90 -229.5v-40h92q131 0 220.5 -68.5zM1069 579v35q0 86 -56.5 147.5t-144.5 61.5q-89 0 -144.5 -62.5t-55.5 -151.5v-30h401zM1069 427v32h-401v-32q0 -294 200 -294t201 294zM539 424v35h-65q-209 0 -209 -150q0 -66 38.5 -120t103.5 -54t102.5 41.5t37.5 93.5
q0 2 -8 154zM1555 -330q0 -118 -60 -214.5t-175 -96.5t-179.5 73.5t-64.5 179.5v94q0 196 -189 196q-29 0 -57 -2q134 -113 134 -265q0 -108 -58 -192t-165 -84t-160 86.5t-53 196.5q0 157 99.5 258t259.5 101q116 0 206.5 -69t90.5 -177v-99q0 -196 124 -196q66 0 105 72.5
t39 149.5q0 166 -152 258l62 66q193 -104 193 -336zM858 -363q0 162 -140 211q-89 -86 -89 -228q0 -62 31 -111t85 -49q52 0 82.5 59.5t30.5 117.5z" />
    <glyph glyph-name="k1l3u1" horiz-adv-x="1605" 
d="M1517.5 510.5q89.5 -68.5 89.5 -198.5t-72 -210.5t-208 -80.5q-56 0 -101 18v118q40 -24 82 -24q164 0 164 178q0 148 -194 148h-73v-37q0 -401 -330 -401q-202 0 -265 131q-45 -131 -207 -131q-125 0 -191.5 84t-66.5 204t87 195t213 75h94v40q0 138 94 231t243 93
t239 -94.5t90 -229.5v-40h92q131 0 220.5 -68.5zM1069 579v35q0 86 -56.5 147.5t-144.5 61.5q-89 0 -144.5 -62.5t-55.5 -151.5v-30h401zM1069 427v32h-401v-32q0 -294 200 -294t201 294zM539 424v35h-65q-209 0 -209 -150q0 -66 38.5 -120t103.5 -54t102.5 41.5t37.5 93.5
q0 2 -8 154zM1561 -776q0 -86 -61.5 -148.5t-148.5 -62.5t-150 62.5t-63 152.5t69 153q-131 64 -131 231v93q0 197 -189 197q-29 0 -57 -2q134 -113 134 -265q0 -108 -58 -192t-165 -84t-160 86t-53 197q0 157 99.5 258t259.5 101q116 0 206.5 -69t90.5 -177v-99
q0 -197 124 -197q66 0 105 73t39 149q0 167 -152 258l62 66q193 -103 193 -336q0 -175 -99 -261q105 -61 105 -184zM1475 -776q0 52 -37.5 88.5t-88.5 36.5q-52 0 -87.5 -36.5t-35.5 -88.5q0 -51 35.5 -87t87.5 -36q51 0 88.5 36t37.5 87zM858 -363q0 162 -140 211
q-89 -86 -89 -228q0 -62 31 -111.5t84 -49.5t83.5 60.5t30.5 117.5z" />
    <glyph glyph-name="k1l3u2" horiz-adv-x="1605" 
d="M1517.5 510.5q89.5 -68.5 89.5 -198.5t-72 -210.5t-208 -80.5q-56 0 -101 18v118q40 -24 82 -24q164 0 164 178q0 148 -194 148h-73v-37q0 -401 -330 -401q-202 0 -265 131q-45 -131 -207 -131q-125 0 -191.5 84t-66.5 204t87 195t213 75h94v40q0 138 94 231t243 93
t239 -94.5t90 -229.5v-40h92q131 0 220.5 -68.5zM1069 579v35q0 86 -56.5 147.5t-144.5 61.5q-89 0 -144.5 -62.5t-55.5 -151.5v-30h401zM1069 427v32h-401v-32q0 -294 200 -294t201 294zM539 424v35h-65q-209 0 -209 -150q0 -66 38.5 -120t103.5 -54t102.5 41.5t37.5 93.5
q0 2 -8 154zM1555 -330q0 -192 -117 -274q112 -68 112 -201q0 -96 -68 -164.5t-166 -68.5t-166.5 68.5t-68.5 164.5q0 128 106 196q-111 69 -111 221v94q0 197 -189 197q-29 0 -57 -3q134 -113 134 -265q0 -108 -58 -192t-165 -84t-160 86.5t-53 196.5q0 157 99.5 258
t259.5 101q116 0 206.5 -69t90.5 -177v-98q0 -197 124 -197q66 0 105 72.5t39 149.5q0 167 -152 258l62 66q193 -103 193 -336zM1388 -733q0 75 -75 75t-75 -75t75 -75t75 75zM1422 -910q43 43 43 95t-23 89q0 -62 -37.5 -99t-90.5 -37t-90 37.5t-40 88.5q-16 -32 -16 -82
t44 -92.5t106 -42.5q61 0 104 43zM858 -363q0 162 -140 212q-89 -87 -89 -228q0 -63 31 -112t85 -49q52 0 82.5 60t30.5 117z" />
    <glyph glyph-name="k1sh" horiz-adv-x="2470" 
d="M2470 0h-1190v71q129 40 129 206q0 173 -174 173h-30v-42q0 -431 -330 -431q-199 0 -265 136q-41 -136 -205 -136q-127 0 -193.5 85.5t-66.5 212.5q0 131 84.5 214.5t218.5 83.5h91v42q0 150 96.5 239t242.5 89t236.5 -93t90.5 -235v-42h29q135 0 223.5 -81t88.5 -219
q0 -104 -54 -160h374v216q-159 24 -269 108t-110 239q0 105 76 186t184 81q261 0 261 -279v-211q318 22 384 467h78v-920zM2345 113v389q-33 -57 -139.5 -115t-197.5 -58v-216h337zM1866 690q0 58 -42 95.5t-91 37.5t-86 -45.5t-37 -117.5t72 -133.5t184 -71.5v235z
M1069 573v37q0 90 -56.5 152t-144.5 62q-89 0 -144.5 -63.5t-55.5 -155.5v-32h401zM1069 450h-401v-37q0 -322 200 -322t201 359zM546 226l-8 192q0 5 1 32h-65q-209 0 -209 -173q0 -72 39 -127.5t103 -55.5q65 0 102 45t37 87z" />
    <glyph glyph-name="k1shu1" horiz-adv-x="2470" 
d="M2413 -1q61 -76 61 -182t-80 -187t-194 -81t-193.5 81t-79.5 187t61 182h-708v71q128 39 128 206q0 174 -169 174h-35v-42q0 -431 -330 -431q-200 0 -265 135q-41 -135 -206 -135q-127 0 -192.5 84.5t-65.5 212.5q0 131 84 214.5t218 83.5h91v42q0 150 97 239.5t243 89.5
t236 -93t90 -236v-42h29q133 0 222.5 -81.5t89.5 -219.5q0 -103 -54 -159h375v216q-155 22 -267.5 107t-112.5 239q0 106 76.5 187.5t184.5 81.5q260 0 260 -281v-211q318 24 384 469h78v-921h-56zM2344 112v388q-32 -56 -139 -114t-198 -58v-216h337zM1866 689
q0 57 -42 95.5t-92 38.5t-86 -46.5t-36 -118.5t72 -133.5t184 -70.5v235zM2314.5 -290q46.5 48 46.5 116t-46.5 114.5t-114.5 46.5t-115.5 -46.5t-47.5 -114.5t47.5 -116t115.5 -48t114.5 48zM1069 572v37q0 90 -56.5 152.5t-145.5 62.5t-144 -63.5t-55 -155.5v-33h401z
M1069 450h-401v-37q0 -323 200 -323t201 360zM508 138q38 46 38 87l-9 187q1 25 1 38h-64q-209 0 -209 -174q0 -76 39.5 -130t103.5 -54t100 46z" />
    <glyph glyph-name="k1shu2" horiz-adv-x="2470" 
d="M2396 0q74 -86 74 -207t-89 -211t-215 -90t-216 90t-90 211t77 207h-657v69q129 40 129 207q0 173 -192 173h-12v-42q0 -430 -330 -430q-199 0 -265 136q-41 -136 -205 -136q-127 0 -193.5 85.5t-66.5 210.5q0 133 84 216t219 83h91v42q0 150 96.5 239.5t242.5 89.5
t236.5 -93t90.5 -236v-42h29q134 0 223 -80.5t89 -220.5q0 -103 -54 -160h374v216q-155 23 -267 107.5t-112 239.5q0 106 76 187.5t184 81.5q261 0 261 -281v-211q318 24 384 469h78v-920h-74zM2345 111v389q-33 -56 -139.5 -114.5t-197.5 -58.5v-216h337zM1866 688
q0 58 -42 96.5t-91 38.5t-86 -46.5t-37 -104.5q0 -87 72 -148t184 -71v235zM2232 -178q29 29 29 67q0 43 -29.5 71.5t-69.5 28.5t-69 -28.5t-29 -68.5t29 -69t69 -29q42 0 70 28zM2302.5 -338q56.5 57 56.5 123t-29 113q0 -77 -49 -125.5t-119 -48.5q-68 0 -116 47t-50 115
q-22 -42 -22 -104t56 -119.5t136 -57.5t136.5 57zM1069 572v37q0 90 -56.5 152.5t-144.5 62.5q-89 0 -144.5 -63.5t-55.5 -156.5v-32h401zM1069 449h-401v-37q0 -320 200 -320t201 357zM509 140q37 37 37 86q-7 141 -7 200v23h-65q-209 0 -209 -173q0 -71 39.5 -126.5
t103.5 -55.5q52 0 101 46z" />
    <glyph glyph-name="k1shr1" horiz-adv-x="2470" 
d="M2472 -7q0 -188 -122.5 -308.5t-337.5 -120.5q-157 0 -271 60t-114 152q0 90 89 125.5t200 35.5q318 0 372 -131q59 87 59 187v7h-1067v69q129 40 129 206q0 174 -192 174h-12v-42q0 -430 -330 -430q-199 0 -265 136q-41 -136 -205 -136q-127 0 -193.5 85.5t-66.5 210.5
q0 132 84 215.5t219 83.5h91v42q0 150 96.5 239.5t242.5 89.5t236.5 -93.5t90.5 -235.5v-42h29q132 0 222 -79.5t90 -221.5q0 -104 -54 -160h374v216q-159 24 -269 108t-110 239q0 105 76 187t184 82q261 0 261 -281v-211q318 24 384 469h78v-873l2 3v-57zM2345 111v389
q-33 -57 -139.5 -115t-197.5 -58v-216h337zM1866 688q0 58 -42 96.5t-91 38.5t-86 -46.5t-37 -118.5t72 -133.5t184 -71.5v235zM2167 -260q0 27 -59.5 56.5t-187.5 29.5q-148 0 -148 -62q0 -83 218 -83q48 0 112.5 11t64.5 48zM1069 572v37q0 90 -56.5 152t-144.5 62
q-89 0 -144.5 -63.5t-55.5 -155.5v-32h401zM1069 449h-401v-37q0 -321 200 -321t201 358zM509 140q37 46 37 86l-8 191q-1 17 1 32h-65q-209 0 -209 -174q0 -70 39.5 -125.5t103.5 -55.5t101 46z" />
    <glyph glyph-name="k1shnh" horiz-adv-x="2470" 
d="M2472 41h-1194v68q128 37 128 195q0 159 -189 159h-12v-39q0 -395 -330 -395q-199 0 -265 129q-42 -129 -207 -129q-122 0 -190 81t-68 201t86 195t217 75h91v39q0 143 96.5 233t242.5 90t236.5 -93.5t90.5 -229.5v-39h29q128 0 220 -74t92 -206q0 -86 -54 -143h374v197
q-151 19 -266.5 102t-115.5 229q0 112 83.5 184.5t169.5 72.5q271 0 271 -269v-201q320 16 388 445h76v-877zM2470 -311q0 -229 -194 -330l-60 87q143 74 143 246q0 88 -48 147t-131 59q-108 0 -108 -131v-387h-116v387q0 133 -132 133t-133 -133v-387h-120v387
q0 131 -171 131q-73 0 -125.5 -50.5t-72.5 -125.5q41 36 115 36t125.5 -56.5t51.5 -137.5t-55 -140t-142 -59q-209 0 -209 277q0 150 92 256t240 106t207 -101q54 101 197 101q142 0 188 -99q47 99 180 99t205.5 -92t72.5 -223zM2347 158v362q-32 -54 -140 -109.5
t-199 -55.5v-197h339zM1866 702q0 54 -42 87t-91 33q-50 0 -86.5 -41t-36.5 -95q0 -82 72 -141.5t184 -69.5v227zM1069 581v35q0 86 -56.5 146t-144.5 60q-89 0 -144.5 -61t-55.5 -148v-32h401zM1069 463h-401v-35q0 -291 200 -291t201 326zM1295 -534q86 0 86 98t-86 98
q-85 0 -85 -99q0 -97 85 -97zM546 264l-8 169q-1 19 1 30h-65q-209 0 -209 -150q0 -71 39.5 -122.5t103.5 -51.5t101 42.5t37 82.5z" />
    <glyph glyph-name="k1shnhu1" horiz-adv-x="2470" 
d="M2472 43h-1194v69q128 38 128 196t-189 158h-12v-40q0 -395 -330 -395q-199 0 -265 130q-42 -130 -207 -130q-122 0 -190 81t-68 201t86 195t217 75h91v40q0 143 95.5 231.5t241.5 88.5t237.5 -92.5t91.5 -227.5v-40h29q128 0 220 -73.5t92 -205.5q0 -87 -54 -143h374
v197q-151 18 -266.5 101t-115.5 230q0 101 77.5 177.5t185.5 76.5q261 0 261 -266v-202q307 15 376 445h88v-877zM2368 -94q102 -98 102 -230t-62 -219t-168 -87t-155.5 63.5t-49.5 164.5t56.5 179.5t158.5 78.5q17 0 26 -2q-32 46 -160 46q-155 0 -155 -130v-388h-108v383
q0 56 -42.5 97t-102.5 41q-59 0 -94.5 -41t-35.5 -97v-383h-115v388q0 130 -173 130q-71 0 -125 -50t-74 -126q41 36 115 36t126 -56.5t52 -137.5t-56 -139.5t-154 -58.5q-196 0 -196 296q0 132 91 237t237 105t211 -101q47 99 193 99t197 -104q67 104 213 104t248 -98z
M2347 161v361q-32 -54 -140 -109t-199 -55v-197h339zM1866 704q0 54 -42 87t-91 33t-86 -40.5t-37 -94.5q0 -83 72 -142.5t184 -68.5v226zM2362 -355q0 51 -15 91q-17 11 -77 11t-97 -44t-37 -98q0 -129 98 -129q128 0 128 169zM1069 583v35q0 86 -56.5 145.5t-144.5 59.5
q-89 0 -144.5 -60.5t-55.5 -146.5v-33h401zM1069 466h-401v-35q0 -292 200 -292t201 327zM1184 -532q87 0 87 98t-86 98t-86 -98t85 -98zM546 266l-8 170q-1 19 1 30h-65q-209 0 -209 -150q0 -71 39.5 -122.5t103.5 -51.5t101 42t37 82z" />
    <glyph glyph-name="k1shnhu2" horiz-adv-x="2472" 
d="M2472 43h-1194v69q128 38 128 196t-189 158h-12v-40q0 -395 -330 -395q-199 0 -265 130q-42 -130 -207 -130q-122 0 -190 81t-68 201t86 195t217 75h91v40q0 143 95.5 231.5t241.5 88.5t237.5 -92.5t91.5 -227.5v-40h29q128 0 220 -73.5t92 -205.5q0 -87 -54 -143h374
v197q-151 18 -266.5 101t-115.5 230q0 101 77.5 177.5t185.5 76.5q261 0 261 -266v-202q307 15 376 445h88v-877zM2347 161v361q-32 -54 -140 -109t-199 -55v-197h339zM1866 704q0 54 -42 87t-91 33t-86 -40.5t-37 -94.5q0 -83 72 -142.5t184 -68.5v226zM1069 583v35
q0 86 -56.5 145.5t-144.5 59.5q-89 0 -144.5 -60.5t-55.5 -146.5v-33h401zM1069 466h-401v-35q0 -292 200 -292t201 327zM546 266l-8 170v12q-1 8 1 18h-65q-209 0 -209 -150q0 -71 39.5 -122.5t103.5 -51.5t101 42t37 82zM1052 -642q-209 0 -209 300q0 132 90.5 239.5
t238.5 107.5t216 -106q50 106 190 106t196 -106q12 49 71 78.5t120 29.5q217 0 264 -145q122 -17 191 -113.5t69 -242.5t-88.5 -261t-241.5 -115q-90 0 -174 56l42 89q59 -47 132 -47q106 0 170 85t64 200q0 72 -34 139t-94 90q23 -49 23 -110q0 -266 -190 -266
q-81 0 -133 73t-52 158q0 89 52 164q58 89 143 99q-39 42 -119 42t-120.5 -38t-40.5 -98v-392h-110v385q0 56 -41 98t-100 42q-58 0 -95.5 -42t-37.5 -98v-385h-117v392q0 133 -170 133q-74 0 -128 -51.5t-73 -128.5q42 35 115 35t124.5 -55t51.5 -139t-55 -143t-140 -59z
M2197 -389q0 89 -33 153h-17q-56 0 -97 -54t-41 -108t25 -96t64 -42q99 0 99 147zM1137 -442q0 100 -87 100t-87 -100t89 -100q85 0 85 100z" />
    <glyph glyph-name="k1shm1" horiz-adv-x="2472" 
d="M2472 43h-1194v69q128 38 128 196t-189 158h-12v-40q0 -395 -330 -395q-199 0 -265 130q-42 -130 -207 -130q-122 0 -190 81t-68 201t86 195t217 75h91v40q0 143 95.5 231.5t241.5 88.5t237.5 -92.5t91.5 -227.5v-40h29q128 0 220 -73.5t92 -205.5q0 -87 -54 -143h374
v197q-151 18 -266.5 101t-115.5 230q0 101 77.5 177.5t185.5 76.5q261 0 261 -266v-202q307 15 376 445h88v-877zM2347 161v361q-32 -54 -140 -109t-199 -55v-197h339zM1866 704q0 54 -42 87t-91 33t-86 -40.5t-37 -94.5q0 -83 72 -142.5t184 -68.5v226zM1069 583v35
q0 86 -56.5 145.5t-144.5 59.5q-89 0 -144.5 -60.5t-55.5 -146.5v-33h401zM1069 466h-401v-35q0 -292 200 -292t201 327zM546 266l-8 170q-1 19 1 30h-65q-209 0 -209 -150q0 -71 39.5 -122.5t103.5 -51.5t101 42t37 82zM2377 -332v-287h-618v282q0 339 313 339
q305 0 305 -334zM2273 -332q0 182 -130 234q40 -57 40 -123q0 -157 -171 -305h261v194zM2077 -216q0 108 -69 108q-59 0 -103.5 -55t-44.5 -169v-182q217 146 217 298z" />
    <glyph glyph-name="k1shm1u1" horiz-adv-x="2472" 
d="M2472 43h-1194v69q128 38 128 196t-189 158h-12v-40q0 -395 -330 -395q-199 0 -265 130q-42 -130 -207 -130q-122 0 -190 81t-68 201t86 195t217 75h91v40q0 143 95.5 231.5t241.5 88.5t237.5 -92.5t91.5 -227.5v-40h29q128 0 220 -73.5t92 -205.5q0 -87 -54 -143h374
v197q-151 18 -266.5 101t-115.5 230q0 101 77.5 177.5t185.5 76.5q261 0 261 -266v-202q307 15 376 445h88v-877zM2347 161v361q-32 -54 -140 -109t-199 -55v-197h339zM1866 704q0 54 -42 87t-91 33t-86 -40.5t-37 -94.5q0 -83 72 -142.5t184 -68.5v226zM1069 583v35
q0 86 -56.5 145.5t-144.5 59.5q-89 0 -144.5 -60.5t-55.5 -146.5v-33h401zM1069 466h-401v-35q0 -292 200 -292t201 327zM546 266l-8 170q-1 19 1 30h-65q-209 0 -209 -150q0 -71 39.5 -122.5t103.5 -51.5t101 42t37 82zM2377 -332v-287h-55q52 -59 52 -143t-61.5 -146
t-148.5 -62t-150 62t-63 146t54 143h-246v282q0 340 313 340q305 0 305 -335zM2273 -332q0 182 -130 234q40 -56 40 -122q0 -158 -171 -305h261v193zM2077 -216q0 108 -69 108q-59 0 -103.5 -55t-44.5 -169v-181q217 145 217 297zM2288 -759q0 51 -37 88.5t-89 37.5
q-51 0 -86.5 -37.5t-35.5 -88.5q0 -52 35.5 -87.5t86.5 -35.5q52 0 89 35.5t37 87.5z" />
    <glyph glyph-name="k1shm1u2" horiz-adv-x="2472" 
d="M2472 43h-1194v69q128 38 128 196t-189 158h-12v-40q0 -395 -330 -395q-199 0 -265 130q-42 -130 -207 -130q-122 0 -190 81t-68 201t86 195t217 75h91v40q0 143 95.5 231.5t241.5 88.5t237.5 -92.5t91.5 -227.5v-40h29q128 0 220 -73.5t92 -205.5q0 -87 -54 -143h374
v197q-151 18 -266.5 101t-115.5 230q0 101 77.5 177.5t185.5 76.5q261 0 261 -266v-202q307 15 376 445h88v-877zM2347 161v361q-32 -54 -140 -109t-199 -55v-197h339zM1866 704q0 54 -42 87t-91 33t-86 -40.5t-37 -94.5q0 -83 72 -142.5t184 -68.5v226zM1069 583v35
q0 86 -56.5 145.5t-144.5 59.5q-89 0 -144.5 -60.5t-55.5 -146.5v-33h401zM1069 466h-401v-35q0 -292 200 -292t201 327zM546 266l-8 170q-1 19 1 30h-65q-209 0 -209 -150q0 -71 39.5 -122.5t103.5 -51.5t101 42t37 82zM2392 -782q0 -96 -69 -165t-167 -69t-166 69t-68 165
t66 164h-229v282q0 340 313 340q305 0 305 -335v-287h-51q66 -68 66 -164zM2273 -331q0 182 -130 234q40 -57 40 -123q0 -157 -171 -304h261v193zM2077 -215q0 108 -69 108q-59 0 -103.5 -55t-44.5 -169v-181q217 145 217 297zM2155 -785q75 0 75 75t-75 75t-75 -75t75 -75z
M2262 -888q43 42 43 94t-21 90q0 -61 -38 -98t-92 -37q-53 0 -89.5 36.5t-38.5 88.5q-18 -32 -18 -82t44 -92t106 -42q61 0 104 42z" />
    <glyph glyph-name="k1shm1r1" horiz-adv-x="2472" 
d="M2472 43h-1194v69q128 38 128 196t-189 158h-12v-40q0 -395 -330 -395q-199 0 -265 130q-42 -130 -207 -130q-122 0 -190 81t-68 201t86 195t217 75h91v40q0 143 95.5 231.5t241.5 88.5t237.5 -92.5t91.5 -227.5v-40h29q128 0 220 -73.5t92 -205.5q0 -87 -54 -143h374
v197q-151 18 -266.5 101t-115.5 230q0 101 77.5 177.5t185.5 76.5q261 0 261 -266v-202q307 15 376 445h88v-877zM2347 161v361q-32 -54 -140 -109t-199 -55v-197h339zM1866 704q0 54 -42 87t-91 33t-86 -40.5t-37 -94.5q0 -83 72 -142.5t184 -68.5v226zM1069 583v35
q0 86 -56.5 145.5t-144.5 59.5q-89 0 -144.5 -60.5t-55.5 -146.5v-33h401zM1069 466h-401v-35q0 -292 200 -292t201 327zM546 266l-8 170q-1 19 1 30h-65q-209 0 -209 -150q0 -71 39.5 -122.5t103.5 -51.5t101 42t37 82zM2380 -613q0 -141 -89.5 -211t-215.5 -70
q-105 0 -169.5 36t-64.5 90t56.5 80t128.5 26q158 0 216 -69q34 36 37 118h-514v274q0 342 312 342q303 0 303 -337v-279zM2279 -334q0 183 -131 237q40 -57 40 -125q0 -161 -170 -305h261v193zM2082 -217q0 110 -70 110q-58 0 -102 -56.5t-44 -170.5v-183q216 147 216 300z
M2165 -787q0 47 -135 47q-91 0 -91 -31q0 -49 142 -49q84 0 84 33z" />
    <glyph glyph-name="k1s1" horiz-adv-x="1605" 
d="M1517.5 510.5q89.5 -68.5 89.5 -198.5t-72 -210.5t-208 -80.5q-56 0 -101 18v118q40 -24 82 -24q164 0 164 178q0 148 -194 148h-73v-37q0 -401 -330 -401q-202 0 -265 131q-45 -131 -207 -131q-125 0 -191.5 84t-66.5 204t87 195t213 75h94v40q0 138 94 231t243 93
t239 -94.5t90 -229.5v-40h92q131 0 220.5 -68.5zM1069 579v35q0 86 -56.5 147.5t-144.5 61.5q-89 0 -144.5 -62.5t-55.5 -151.5v-30h401zM1069 427v32h-401v-32q0 -294 200 -294t201 294zM539 424v35h-65q-209 0 -209 -150q0 -66 38.5 -120t103.5 -54t102.5 41.5t37.5 93.5
q0 2 -8 154zM1578 -308q0 -327 -268 -327q-128 0 -194 82.5t-66 209.5v96q0 145 -148 145q-118 0 -118 -133v-388h-123v388q0 133 -143 133q-78 0 -122 -62.5t-44 -148.5q0 -173 145 -244l-64 -86q-192 103 -192 330q0 127 75 222t216 95t190 -99q45 99 174 99t204 -71.5
t75 -186.5v-111q0 -164 138 -164q157 0 157 223q0 164 -162 236l64 81q206 -99 206 -319z" />
    <glyph glyph-name="k1s1u1" horiz-adv-x="1605" 
d="M1517.5 510.5q89.5 -68.5 89.5 -198.5t-72 -210.5t-208 -80.5q-56 0 -101 18v118q40 -24 82 -24q164 0 164 178q0 148 -194 148h-73v-37q0 -401 -330 -401q-202 0 -265 131q-45 -131 -207 -131q-125 0 -191.5 84t-66.5 204t87 195t213 75h94v40q0 138 94 231t243 93
t239 -94.5t90 -229.5v-40h92q131 0 220.5 -68.5zM1069 579v35q0 86 -56.5 147.5t-144.5 61.5q-89 0 -144.5 -62.5t-55.5 -151.5v-30h401zM1069 427v32h-401v-32q0 -294 200 -294t201 294zM539 424v35h-65q-209 0 -209 -150q0 -66 38.5 -120t103.5 -54t102.5 41.5t37.5 93.5
q0 2 -8 154zM1578 -309q0 -192 -103 -275q98 -64 98 -182q0 -86 -61.5 -148.5t-148.5 -62.5t-149.5 62.5t-62.5 148.5t59 148q-160 58 -160 274v96q0 146 -148 146q-118 0 -118 -134v-387h-123v387q0 134 -143 134q-78 0 -122 -62.5t-44 -149.5q0 -172 145 -243l-64 -87
q-192 104 -192 330q0 128 75 222.5t216 94.5t190 -98q45 98 174 98t204 -71.5t75 -186.5v-110q0 -165 138 -165q157 0 157 224q0 164 -162 236l64 80q206 -98 206 -319zM1487 -766q0 52 -36.5 88.5t-88.5 36.5t-88 -36.5t-36 -88.5t36 -87t88 -35t88.5 35t36.5 87z" />
    <glyph glyph-name="k1s1u2" horiz-adv-x="1605" 
d="M1517.5 510.5q89.5 -68.5 89.5 -198.5t-72 -210.5t-208 -80.5q-56 0 -101 18v118q40 -24 82 -24q164 0 164 178q0 148 -194 148h-73v-37q0 -401 -330 -401q-202 0 -265 131q-45 -131 -207 -131q-125 0 -191.5 84t-66.5 204t87 195t213 75h94v40q0 138 94 231t243 93
t239 -94.5t90 -229.5v-40h92q131 0 220.5 -68.5zM1069 579v35q0 86 -56.5 147.5t-144.5 61.5q-89 0 -144.5 -62.5t-55.5 -151.5v-30h401zM1069 427v32h-401v-32q0 -294 200 -294t201 294zM539 424v35h-65q-209 0 -209 -150q0 -66 38.5 -120t103.5 -54t102.5 41.5t37.5 93.5
q0 2 -8 154zM1583 -799q0 -95 -69 -164q-70 -69 -166 -69t-165 69t-69 173t86 174q-150 63 -150 272v96q0 145 -148 145q-118 0 -118 -133v-388h-123v388q0 133 -143 133q-78 0 -122 -62.5t-44 -148.5q0 -173 145 -244l-64 -86q-192 103 -192 330q0 127 75 222t216 95
t190 -99q45 99 174 99t204 -71.5t75 -186.5v-111q0 -164 138 -164q157 0 157 223q0 165 -162 237l64 80q206 -98 206 -310t-115 -292q120 -69 120 -207zM1346 -801q75 0 75 75t-75 75t-75 -75t75 -75zM1453.5 -902.5q42.5 42.5 42.5 94.5t-21 88q0 -60 -38.5 -97.5
t-91.5 -37.5t-89.5 37t-38.5 89q-17 -33 -17 -82t44 -91.5t105 -42.5q62 0 104.5 42.5z" />
    <glyph glyph-name="k1s1r1" horiz-adv-x="1605" 
d="M1517.5 510.5q89.5 -68.5 89.5 -198.5t-72 -210.5t-208 -80.5q-56 0 -101 18v118q40 -24 82 -24q164 0 164 178q0 148 -194 148h-73v-37q0 -401 -330 -401q-202 0 -265 131q-45 -131 -207 -131q-125 0 -191.5 84t-66.5 204t87 195t213 75h94v40q0 138 94 231t243 93
t239 -94.5t90 -229.5v-40h92q131 0 220.5 -68.5zM1069 579v35q0 86 -56.5 147.5t-144.5 61.5q-89 0 -144.5 -62.5t-55.5 -151.5v-30h401zM1069 427v32h-401v-32q0 -294 200 -294t201 294zM539 424v35h-65q-209 0 -209 -150q0 -66 38.5 -120t103.5 -54t102.5 41.5t37.5 93.5
q0 2 -8 154zM1372 10q211 -104 211 -350q0 -249 -122 -405.5t-355 -156.5q-230 0 -231 143q0 113 189 113q190 0 236 -90q42 31 65 57t39 65q-47 -19 -94 -19q-126 0 -193 78.5t-67 208.5v56q0 94 -29 139.5t-119 45.5q-118 0 -118 -136v-390h-123v390q0 136 -145 136
q-78 0 -121 -64t-43 -147q0 -175 145 -249l-64 -86q-192 101 -192 332q0 132 75 226q74 94 206 94t200 -74q62 74 181 74t193.5 -66t78.5 -192l3 -87q6 -186 137 -186q155 0 155 219q0 166 -162 241zM1212 -783q0 42 -148 42q-76 0 -76 -23q0 -47 138 -47q86 0 86 28z" />
    <glyph glyph-name="k1rhrh" horiz-adv-x="1605" 
d="M1517.5 510.5q89.5 -68.5 89.5 -198.5t-72 -210.5t-208 -80.5q-56 0 -101 18v118q40 -24 82 -24q164 0 164 178q0 148 -194 148h-73v-37q0 -401 -330 -401q-202 0 -265 131q-45 -131 -207 -131q-125 0 -191.5 84t-66.5 204t87 195t213 75h94v40q0 138 94 231t243 93
t239 -94.5t90 -229.5v-40h92q131 0 220.5 -68.5zM1069 579v35q0 86 -56.5 147.5t-144.5 61.5q-89 0 -144.5 -62.5t-55.5 -151.5v-30h401zM1069 427v32h-401v-32q0 -294 200 -294t201 294zM539 424v35h-65q-209 0 -209 -150q0 -66 38.5 -120t103.5 -54t102.5 41.5t37.5 93.5
q0 2 -8 154zM1564 -331q0 -222 -222 -307l-50 85q168 62 168 219q0 98 -66.5 164.5t-159.5 66.5q-94 0 -157.5 -66.5t-63.5 -164.5q0 -162 167 -219l-50 -85q-220 88 -220 307q0 140 94.5 236t235.5 96t232.5 -95t91.5 -237zM880 -331q0 -219 -224 -307l-46 85
q164 59 164 219q0 98 -65 164.5t-159 66.5t-157 -66.5t-63 -164.5q0 -162 167 -219l-52 -85q-218 88 -218 307q0 140 94 236q93 96 235 96t233 -95t91 -237z" />
    <glyph glyph-name="k1rhrhu1" horiz-adv-x="1605" 
d="M1517.5 510.5q89.5 -68.5 89.5 -198.5t-72 -210.5t-208 -80.5q-56 0 -101 18v118q40 -24 82 -24q164 0 164 178q0 148 -194 148h-73v-37q0 -401 -330 -401q-202 0 -265 131q-45 -131 -207 -131q-125 0 -191.5 84t-66.5 204t87 195t213 75h94v40q0 138 94 231t243 93
t239 -94.5t90 -229.5v-40h92q131 0 220.5 -68.5zM1069 579v35q0 86 -56.5 147.5t-144.5 61.5q-89 0 -144.5 -62.5t-55.5 -151.5v-30h401zM1069 427v32h-401v-32q0 -294 200 -294t201 294zM539 424v35h-65q-209 0 -209 -150q0 -66 38.5 -120t103.5 -54t102.5 41.5t37.5 93.5
q0 2 -8 154zM1564 -778q0 -86 -62 -148.5t-149 -62.5t-150 62.5t-63 143.5t47 137.5t116 74.5l-11 19q168 61 168 218q0 99 -66.5 165.5t-159.5 66.5q-94 0 -157.5 -66.5t-63.5 -165.5q0 -162 167 -218l-50 -85q-220 87 -220 307q0 139 94.5 235t235.5 96t232.5 -95
t91.5 -245t-124 -244q124 -58 124 -195zM880 -330q0 -220 -224 -307l-46 85q164 59 164 218q0 99 -65 165.5t-159 66.5t-157 -66.5t-63 -165.5q0 -162 167 -218l-52 -85q-218 87 -218 307q0 139 94 235q93 96 235 96t233 -95t91 -236zM1477 -778q0 52 -36.5 88.5t-89.5 36.5
q-51 0 -86.5 -36.5t-35.5 -88.5q0 -51 35.5 -87t86.5 -36q53 0 89.5 36t36.5 87z" />
    <glyph glyph-name="k1rhrhu2" horiz-adv-x="1605" 
d="M1517.5 510.5q89.5 -68.5 89.5 -198.5t-72 -210.5t-208 -80.5q-56 0 -101 18v118q40 -24 82 -24q164 0 164 178q0 148 -194 148h-73v-37q0 -401 -330 -401q-202 0 -265 131q-45 -131 -207 -131q-125 0 -191.5 84t-66.5 204t87 195t213 75h94v40q0 138 94 231t243 93
t239 -94.5t90 -229.5v-40h92q131 0 220.5 -68.5zM1069 579v35q0 86 -56.5 147.5t-144.5 61.5q-89 0 -144.5 -62.5t-55.5 -151.5v-30h401zM1069 427v32h-401v-32q0 -294 200 -294t201 294zM539 424v35h-65q-209 0 -209 -150q0 -66 38.5 -120t103.5 -54t102.5 41.5t37.5 93.5
q0 2 -8 154zM1564.5 -660.5q45.5 -61.5 45.5 -149.5t-69 -156t-166 -68t-166 68t-69 156t46.5 149.5t118.5 83.5l-13 24q168 62 168 219q0 98 -66.5 164.5t-160.5 66.5q-93 0 -157 -66.5t-64 -164.5q0 -162 167 -219l-49 -85q-221 88 -221 307q0 140 95 236t236 96t232 -95
t91 -242t-116 -241q72 -22 117.5 -83.5zM879 -331q0 -219 -223 -307l-47 85q165 59 165 219q0 98 -65 164.5t-160 66.5t-157 -66.5t-62 -164.5q0 -162 166 -219l-51 -85q-219 88 -219 307q0 140 94 236t236 96t232.5 -95t90.5 -237zM1447 -728q0 75 -75 75t-75 -75t75 -75
t75 75zM1480.5 -905.5q43.5 43.5 43.5 95.5t-23 88v-5v-5q0 -51 -38 -88q-39 -37 -91 -37t-89.5 37t-39.5 89q-17 -33 -17 -82t44.5 -92.5t105.5 -43.5t104.5 43.5z" />
    <glyph glyph-name="k2u1" horiz-adv-x="1532" 
d="M1482 0q52 -71 52 -172t-80 -182.5t-194 -81.5t-194 81.5t-80 182.5t51 172h-169v100q150 96 150 324q0 168 -95.5 283.5t-267.5 115.5t-278.5 -117t-106.5 -249v-17q52 120 184 120t205 -84.5t73 -208.5q0 -122 -72 -205t-193 -83q-168 0 -246 118.5t-78 282.5
q0 243 142.5 403t370.5 160t366.5 -151.5t138.5 -361.5t-106 -315h343v805h136v-920h-52zM1374.5 -274q46.5 48 46.5 115t-46.5 113t-114.5 46t-115.5 -46t-47.5 -113t47.5 -115t115.5 -48t114.5 48zM610 267q0 72 -41 122.5t-111 50.5t-111.5 -52t-41.5 -122t41.5 -121.5
t111.5 -51.5t111 51.5t41 122.5zM1260 0z" />
    <glyph glyph-name="k2u2" horiz-adv-x="1532" 
d="M1534 -1h-76q74 -87 74 -205t-89 -208.5t-215 -90.5t-216 90.5t-90 208.5t77 205h-131v101q150 96 150 324q0 168 -96.5 284t-266.5 116t-277.5 -118t-107.5 -249v-17q52 120 184 120t205 -84.5t73 -208.5q0 -122 -72 -205t-193 -83q-169 0 -246.5 118t-77.5 283
q0 243 142.5 403t370.5 160t366.5 -151.5t138.5 -361.5t-106 -315h343v805h136v-921zM1293.5 -174q29.5 28 29.5 69t-29.5 69t-70.5 28t-69 -28t-28 -69t28 -69t69 -28t70.5 28zM1364.5 -335q56.5 57 56.5 123t-30 113q0 -76 -49 -125t-118 -49q-68 0 -116 47.5t-50 114.5
q-23 -43 -23 -105t56.5 -119t136.5 -57t136.5 57zM610 267q0 72 -41 122.5t-111 50.5t-111.5 -52t-41.5 -122t41.5 -121.5t111.5 -51.5t111 51.5t41 122.5z" />
    <glyph glyph-name="k2r1" horiz-adv-x="1532" 
d="M1534 -8q0 -205 -123.5 -313.5t-288.5 -108.5t-267 64t-102 142t87.5 120t188.5 42q281 0 336 -131q44 72 44 185v8h-541v100q150 96 150 324q0 168 -95 283.5t-268 115.5q-172 0 -278.5 -117.5t-106.5 -248.5v-17q52 120 184 120t205 -85t73 -208t-72 -205.5t-193 -82.5
q-169 0 -246.5 118t-77.5 283q0 238 140 400.5t369 162.5q228 0 368.5 -149.5t140.5 -361.5t-106 -318h343v806h136v-928zM1085 -317q167 0 167 61q0 24 -55.5 53t-137.5 29t-125.5 -18t-43.5 -43q0 -24 55.5 -53t139.5 -29zM610 267q0 72 -41 122.5t-111 50.5t-111.5 -52
t-41.5 -122t41.5 -121.5t111.5 -51.5t111 51.5t41 122.5z" />
    <glyph glyph-name="k3u1" horiz-adv-x="1405" 
d="M1019 943q192 0 290.5 -130t98.5 -326t-118 -341.5t-379 -145.5h-452q-59 0 -108 -32t-49 -88t48 -85t109 -29h926v-115h-948q-114 0 -190 59.5t-76 169.5t76 172.5t190 62.5h444q396 0 396 386q0 135 -72.5 229t-186.5 94t-144.5 -62t-30.5 -190v-110q0 -133 -89 -219
t-251 -86t-260 114.5t-98 260.5t64.5 253t193.5 158l66 -86q-191 -77 -191 -297q0 -110 61.5 -200t175.5 -90q192 0 192 243v131q0 135 80 217t232 82z" />
    <glyph glyph-name="k3u2" horiz-adv-x="1406" 
d="M1411 253q0 -115 -84 -184t-202 -69h-666q-64 0 -110.5 -31t-46.5 -87q0 -58 48 -87t109 -29h929v-113h-951q-114 0 -190 58.5t-76 167.5t79 172.5t187 63.5h666q167 0 167 143q0 152 -189 152h-116v120h116q189 0 189 136q0 157 -243 157q-116 0 -150 -68t-34 -183v-110
q0 -135 -90 -220t-252 -85t-259 112.5t-97 276.5q0 278 258 397l58 -93q-183 -89 -183 -290q0 -108 62.5 -194.5t174.5 -86.5q190 0 190 234v131q0 125 89 212t246 87q156 0 263.5 -68.5t107.5 -201.5q0 -69 -36 -124t-98 -73q134 -44 134 -223z" />
    <glyph glyph-name="k3r1" horiz-adv-x="1534" 
d="M1546 411q0 -319 -195 -579.5t-520 -260.5q-132 0 -254 50.5t-122 163.5q0 89 96 129t201 40t226 -45.5t143 -126.5q133 93 213 277.5t80 364.5t-78 289.5t-211 109.5t-171.5 -92t-38.5 -243v-136q0 -157 -97.5 -254.5t-278.5 -97.5t-287.5 130.5t-106.5 322.5
q0 347 280 490l67 -103q-211 -112 -211 -368q0 -131 72 -243.5t203 -112.5q218 0 218 300v160q0 152 96 259.5t251 107.5q200 0 312.5 -153.5t112.5 -378.5zM993 -252q0 42 -86 64t-150 22q-164 0 -164 -54q0 -44 82 -69t139 -25q179 0 179 62z" />
    <glyph glyph-name="k3r2" horiz-adv-x="1534" 
d="M1546 411q0 -344 -207.5 -593t-543.5 -249q-422 0 -422 213q0 79 71.5 126.5t162.5 47.5q155 0 212 -93q39 96 173 96t193 -125q108 110 168.5 271t60.5 330t-78 278.5t-211 109.5t-171.5 -92t-38.5 -243v-136q0 -157 -97.5 -254.5t-278.5 -97.5t-287.5 130.5
t-106.5 322.5q0 347 280 490l67 -103q-211 -112 -211 -368q0 -131 72 -243.5t203 -112.5q218 0 218 300v160q0 152 96 259.5t251 107.5q200 0 312.5 -153.5t112.5 -378.5zM1093 -245q-12 91 -101 91q-47 0 -79.5 -29.5t-32.5 -71.5v-27h-113v39q-2 42 -49 65.5t-91 23.5
q-120 0 -120 -66q0 -103 270 -103q194 0 316 78z" />
    <glyph glyph-name="k3k3" horiz-adv-x="1532" 
d="M1534 469q0 -141 -73 -259.5t-205 -183.5l-72 82q225 100 225 381q0 131 -71 233t-215 102q-209 0 -209 -313v-131q0 -152 -97 -253t-277 -101t-287.5 133t-107.5 304q0 349 280 480l84 -81q-228 -99 -228 -366q0 -130 72 -240.5t203 -110.5q226 0 226 297v153
q0 152 92 250t247 98q207 0 310 -137.5t103 -336.5zM1445 -327q0 -210 -193 -309l-77 73q164 68 164 248q0 89 -43.5 151.5t-125.5 62.5q-120 0 -120 -199v-87q0 -103 -68 -175t-188 -72t-193 93t-73 221q0 228 197 329l74 -73q-155 -77 -155 -244q0 -89 42 -154.5
t120 -65.5q130 0 130 183v101q0 103 63 174.5t169 71.5q140 0 208.5 -97t68.5 -232z" />
    <glyph glyph-name="k3k3u1" horiz-adv-x="1532" 
d="M1534 469q0 -141 -73 -259.5t-205 -183.5l-72 81q225 101 225 382q0 130 -71 232t-215 102q-209 0 -209 -312v-131q0 -153 -97 -253.5t-277 -100.5t-287.5 133t-107.5 304q0 349 280 480l84 -82q-228 -98 -228 -365q0 -131 72 -241t203 -110q227 0 227 297v153
q0 150 91.5 249t246.5 99q207 0 310 -137.5t103 -336.5zM936 -202q0 76 48 139.5t169 63.5t188.5 -88.5t67.5 -221.5q0 -132 -80.5 -240t-249.5 -108h-289q-87 -1 -87 -51t87 -50h606v-103h-620q-78 0 -130.5 38.5t-52.5 110.5t54 115t129 43h284q240 0 240 258
q0 84 -43 140.5t-108 56.5q-63 0 -82 -38t-19 -112v-68q0 -93 -64 -145t-170 -52t-172.5 73.5t-66.5 174.5q0 202 182 275l59 -76q-131 -51 -131 -189q0 -64 38.5 -114.5t102.5 -50.5q110 0 110 135v84z" />
    <glyph glyph-name="k3k3u2" horiz-adv-x="1532" 
d="M1534 469q0 -141 -73 -259.5t-205 -183.5l-72 81q225 101 225 382q0 130 -71 232t-215 102q-209 0 -209 -312v-131q0 -153 -97 -253.5t-277 -100.5t-287.5 133t-107.5 304q0 349 280 480l84 -82q-228 -98 -228 -365q0 -131 72 -241t203 -110q214 0 221 287l4 163
q4 153 94.5 250.5t245.5 97.5q207 0 310 -137.5t103 -336.5zM1423 -453q0 -84 -56.5 -144t-135.5 -60h-432q-89 0 -89 -52q0 -46 89 -46h612v-106h-625q-76 0 -128.5 39.5t-52.5 110.5t52.5 114t128.5 43h428q40 0 69.5 30.5t29.5 72.5q0 96 -113 96h-37v92h37q113 0 113 73
q0 91 -148 91q-105 0 -105 -150v-66q0 -84 -61 -139t-170 -55q-106 0 -173.5 72.5t-67.5 170.5q0 192 181 275l54 -80q-125 -60 -125 -185q0 -61 38 -109t102 -48q109 0 109 127v81q0 87 61 147t165 60t177 -47.5t73 -139.5q0 -39 -25.5 -79.5t-65.5 -45.5q91 -30 91 -143z
" />
    <glyph glyph-name="k3k3r1" horiz-adv-x="1532" 
d="M1534 470q0 -140 -73 -259t-205 -184l-72 82q225 101 225 382q0 127 -70 229.5t-216 102.5q-209 0 -209 -311v-131q0 -152 -97 -253t-275 -101t-287.5 133.5t-109.5 304.5q0 347 280 478l84 -82q-228 -98 -228 -363q0 -128 72 -240t203 -112q211 0 219 264l6 206
q4 136 95 231.5t240 95.5q215 0 316.5 -137t101.5 -336zM1468 -351q0 -205 -129 -377.5t-343 -172.5q-86 0 -171 32q-85 33 -85 95t67.5 92.5t136.5 30.5t150 -27t95 -73q75 51 121.5 174t46.5 238q0 237 -177 237q-116 0 -116 -199v-84q0 -104 -66.5 -172t-187.5 -68
t-193.5 89t-72.5 213q0 235 199 334l56 -89q-140 -71 -140 -233q0 -82 43 -146.5t119 -64.5q126 0 126 176v101q0 103 64.5 177t170.5 74q138 0 212 -103.5t74 -253.5zM1093 -791q0 46 -158 46q-79 0 -79 -28q0 -46 118 -46t119 28z" />
    <glyph glyph-name="k3k4" horiz-adv-x="2878" 
d="M2880 1h-1229v317h-415v69q128 60 128 214q0 93 -72.5 157.5t-168.5 64.5q-121 0 -182 -100t-61 -232v-136q0 -166 -92.5 -271t-267.5 -105q-174 0 -274.5 142.5t-100.5 334.5q0 347 280 487l84 -84q-228 -113 -228 -384q0 -137 64.5 -254t193.5 -117q202 0 209 280
l4 160q5 201 109.5 300t261.5 99t260.5 -92t103.5 -229t-52 -193h216v133q0 172 119.5 276.5t311.5 104.5q188 0 304 -102.5t116 -278.5v-244h-708v-201h952v803h134v-919zM2364 429v96q0 135 -74 216.5t-206 81.5q-133 0 -210.5 -81.5t-77.5 -216.5v-96h568z" />
    <glyph glyph-name="k3k4u1" horiz-adv-x="2878" 
d="M2880 0h-66q66 -76 66 -182t-80 -186.5t-194 -80.5t-193.5 80.5t-79.5 186.5t66 182h-748v320h-415v69q128 60 128 214q0 93 -72.5 156.5t-168.5 63.5q-123 0 -183 -99t-60 -231v-141q0 -163 -92.5 -268t-267.5 -105q-174 0 -274.5 142.5t-100.5 336.5q0 345 280 485
l84 -84q-228 -113 -228 -382q0 -139 64.5 -256t193.5 -117q204 0 211 312l3 144q4 187 108.5 285t261.5 98t260.5 -91t103.5 -228t-52 -193h216v133q0 167 116.5 273t315.5 106q188 0 303.5 -101.5t115.5 -277.5v-244h-708v-201h952v801h134v-920zM2364 431v96
q0 135 -74 215.5t-206 80.5q-133 0 -210.5 -80.5t-77.5 -215.5v-96h568zM2767 -176q0 64 -46.5 111.5t-114.5 47.5t-115.5 -47.5t-47.5 -111.5t47.5 -112t115.5 -48t114.5 48t46.5 112z" />
    <glyph glyph-name="k3k4u2" horiz-adv-x="2878" 
d="M2807 0q73 -86 73 -204t-88 -208.5t-215 -90.5t-217 90.5t-90 208.5t77 204h-696v318h-415v68q128 60 128 215q0 92 -72.5 157t-168.5 65q-121 0 -182 -100.5t-61 -232.5v-138q0 -164 -93 -268.5t-266 -104.5t-274.5 141t-101.5 336q0 347 280 487l84 -84
q-228 -112 -228 -384q0 -134 64.5 -253t193.5 -119q204 0 210 289l3 156q4 193 109 294t262 101t260.5 -92.5t103.5 -229.5t-52 -193h216v133q0 167 120.5 274.5t308.5 107.5t305 -101.5t117 -280.5v-243h-708v-204h952v806h134v-920h-73zM2364 428v96q0 136 -74 217.5
t-206 81.5q-133 0 -210.5 -81.5t-77.5 -217.5v-96h568zM2641.5 -172.5q29.5 28.5 29.5 67.5t-29.5 67.5t-69.5 28.5t-69 -28.5t-29 -67.5t29 -67.5t69 -28.5t69.5 28.5zM2713.5 -333q56.5 57 56.5 123t-29 112q0 -75 -49.5 -124.5t-118.5 -49.5t-117 47.5t-50 114.5
q-22 -42 -22 -104t56.5 -119t136.5 -57t136.5 57z" />
    <glyph glyph-name="k3k4r1" horiz-adv-x="2878" 
d="M2880 0h-2v-7q0 -204 -130.5 -312.5t-306.5 -108.5t-285 62.5t-109 146.5q0 82 91 124.5t212 42.5t222.5 -42.5t126.5 -96.5q54 84 54 184v7h-1102v318h-415v69q128 60 128 214q0 93 -72.5 157.5t-168.5 64.5q-121 0 -182 -100t-61 -232v-139q0 -163 -92.5 -268
t-267.5 -105q-174 0 -274.5 142.5t-100.5 334.5q0 347 280 487l84 -84q-228 -113 -228 -384q0 -137 64.5 -254t193.5 -117q205 0 210 288l3 168q3 180 109 282q105 101 262 101t260.5 -92t103.5 -229t-52 -193h216v133q0 171 120 276t311 105q188 0 304 -102.5t116 -278.5
v-244h-708v-204h952v806h134v-920zM2364 429v96q0 135 -74 216.5t-206 81.5q-133 0 -210.5 -81.5t-77.5 -216.5v-96h568zM2401 -314q177 0 177 60q0 22 -53.5 54t-148.5 32t-138 -18t-43 -44t59 -55t147 -29z" />
    <glyph glyph-name="k3th3" horiz-adv-x="1530" 
d="M1528 246q0 -121 -92 -195.5t-210 -74.5t-211 24v123q46 -24 189 -24q76 0 131 40.5t55 113.5q0 152 -199 152h-59v123h59q199 0 199 133q0 162 -263 162q-213 0 -213 -336v-136q0 -159 -98.5 -265.5t-276.5 -106.5t-286 138.5t-108 334.5q0 348 279 491l70 -94
q-214 -105 -214 -378q0 -134 72 -253t203 -119q220 0 226 300l4 186q3 153 98 255.5t261 102.5q165 0 274.5 -70.5t109.5 -206.5q0 -63 -38.5 -120t-101.5 -75q140 -44 140 -225z" />
    <glyph glyph-name="k3th3u1" horiz-adv-x="1530" 
d="M1528 251q0 -143 -128 -221q103 -82 103 -205t-80 -204t-194 -81t-193.5 81t-79.5 189t68 188q-17 2 -29 7v122q74 -24 179 -24t160.5 41t55.5 114q0 150 -199 150h-59v120h59q199 0 199 136q0 159 -263 159q-213 0 -213 -333v-136q0 -155 -98 -263.5t-277 -108.5
q-178 0 -286 138.5t-108 334.5q0 345 279 488l70 -94q-214 -106 -214 -375q0 -135 73 -253.5t202 -118.5q218 0 226 316l4 167q4 157 98.5 257.5t260.5 100.5t275 -69.5t109 -205.5q0 -62 -38.5 -119t-101.5 -75q140 -44 140 -223zM1344 -299q46 48 46 116t-46 114.5
t-114 46.5t-116 -46.5t-48 -114.5t48 -116t116 -48t114 48z" />
    <glyph glyph-name="k3th3u2" horiz-adv-x="1530" 
d="M1528 251q0 -150 -138 -227q117 -92 117 -229t-89.5 -226.5t-215.5 -89.5t-215.5 89.5t-89.5 215.5t90 216q-17 2 -29 7v138q56 -42 246 -42q76 0 131 41t55 114q0 150 -199 150h-59v120h59q199 0 199 136q0 159 -263 159q-213 0 -213 -333v-136q0 -155 -98.5 -263.5
t-276.5 -108.5t-286 138.5t-108 334.5q0 345 279 488l70 -94q-214 -106 -214 -375q0 -135 73 -253.5t202 -118.5q219 0 226 300l4 183q3 153 98 255.5t261 102.5t275 -69.5t109 -205.5q0 -62 -38.5 -119t-101.5 -75q140 -44 140 -223zM1267.5 -190q29.5 28 29.5 68
t-29.5 68.5t-69.5 28.5t-68.5 -28.5t-28.5 -68.5t28.5 -68t68.5 -28t69.5 28zM1338 -352q56 58 57 124q0 66 -29 113q0 -78 -49 -126.5t-118 -48.5t-117 48t-51 114q-21 -41 -21 -104t56 -119.5t136 -56.5t136 56z" />
    <glyph glyph-name="k3th3r1" horiz-adv-x="1572" 
d="M1435 338q140 -86 140 -310t-139 -340.5t-360 -116.5q-122 0 -244 53t-122 166q0 94 92.5 134t201.5 40t210 -36t122 -114q94 79 94 214q0 98 -47 165.5t-140 67.5h-88v145h88q79 0 127 59t48 147t-78.5 149.5t-172.5 61.5q-248 0 -248 -337v-136q0 -162 -98 -267
t-282 -105q-183 0 -288.5 139t-105.5 334q0 351 279 492l70 -99q-214 -116 -214 -374q0 -134 72 -249t203 -115q220 0 226 279l4 195q3 159 106 261t266 102q166 0 287.5 -88t121.5 -240q0 -206 -131 -277zM1221 -252q0 49 -73.5 71t-139.5 22q-167 0 -167 -61
q0 -47 83.5 -68t153.5 -21q143 0 143 57z" />
    <glyph glyph-name="k3th3th4" horiz-adv-x="2537" 
d="M2542 457q0 -195 -117 -337t-307 -142t-272 142q-101 -143 -412 -143q-355 0 -355 163q0 47 35.5 85.5t85.5 39.5l113 2q37 1 65 24t28 58q0 93 -138 93h-79v113h79q57 0 97.5 39t40.5 98q0 131 -236 131q-256 0 -256 -359v-110q0 -158 -101.5 -266.5t-275.5 -108.5
q-173 0 -282.5 140.5t-109.5 334.5q0 349 280 489l69 -96q-213 -116 -213 -373q0 -137 72 -250.5t203 -113.5q216 0 225 287l5 164q5 178 111 280t292 102q138 0 251 -60t113 -178q0 -162 -125 -197q54 -7 89.5 -52.5t35.5 -107.5t-50.5 -123t-115.5 -61l-112 2
q-56 0 -56 -37q0 -51 199 -51q354 0 354 268v574h150v-574q0 -83 50.5 -164.5t128.5 -81.5q145 0 228.5 102t83.5 248q0 291 -230 397l73 96q286 -146 286 -486z" />
    <glyph glyph-name="k3th3th4u1" horiz-adv-x="2537" 
d="M2542 456q0 -256 -176 -394q146 -78 146 -244q0 -112 -80 -193t-194 -81t-194.5 81t-80.5 185t60 179q-121 31 -177 129q-98 -140 -412 -140q-355 0 -355 161q0 47 35.5 85.5t85.5 39.5l113 2q37 1 65 24t28 58q0 93 -138 93h-66v113h66q57 0 97.5 39t40.5 98
q0 132 -236 132q-256 0 -256 -360v-111q0 -154 -98 -262t-276 -108t-286.5 138.5t-108.5 332.5q0 350 280 490l69 -96q-213 -116 -213 -375q0 -136 72 -249.5t203 -113.5q219 0 225 278l4 179q4 170 111.5 273.5t292.5 103.5q138 0 251 -60.5t113 -178.5q0 -162 -125 -197
q54 -7 89.5 -53t35.5 -108t-50.5 -122.5t-115.5 -60.5l-112 2q-56 0 -56 -37q0 -52 199 -52q354 0 354 269v575h150v-575q0 -83 50.5 -164.5t128.5 -81.5q145 0 228.5 102t83.5 247q0 294 -230 399l73 96q286 -145 286 -487zM2352 -296q47 48 47 116t-46.5 115t-114.5 47
t-115.5 -47t-47.5 -115t47.5 -116t115.5 -48t114 48z" />
    <glyph glyph-name="k3th3th4u2" horiz-adv-x="2537" 
d="M2542 457q0 -263 -188 -401q158 -89 158 -268q0 -128 -89 -216t-215 -88t-216 89t-90 213t86 214q-96 37 -142 120q-104 -145 -412 -145h-4q-351 0 -351 165q0 49 35.5 86.5t85.5 38.5l113 2q93 2 93 82q0 93 -138 93h-66v113h66q59 0 98.5 39t39.5 98q0 131 -236 131
q-256 0 -256 -359v-110q0 -162 -100.5 -266.5t-276.5 -104.5t-284 138.5t-108 332.5q0 349 280 489l69 -96q-213 -116 -213 -373q0 -140 71 -252t204 -112q216 0 225 295l5 156q6 185 112.5 283.5t264.5 98.5t274 -57.5t116 -180.5q0 -162 -125 -197q54 -7 89.5 -52.5
t35.5 -107.5t-49.5 -123t-116.5 -61l-112 2q-56 0 -56 -37q0 -51 199 -51q354 0 354 268v574h150v-574q0 -83 50.5 -164.5t128.5 -81.5q143 0 227.5 101t84.5 249q0 291 -230 397l73 96q286 -146 286 -486zM2274.5 -186q28.5 28 28.5 68t-29.5 69t-70.5 29t-69 -27t-28 -69
t28 -70t70 -28t70.5 28zM2344 -348q56 54 57 122q0 68 -30 115q0 -77 -47.5 -126t-117.5 -49t-118 47t-50 116q-23 -42 -23 -105t56.5 -119.5t136.5 -56.5t136 56z" />
    <glyph glyph-name="k3th3th4r1" horiz-adv-x="2537" 
d="M2542 472q0 -357 -178.5 -628t-525.5 -271q-131 0 -252 50.5t-121 162.5q0 90 95.5 130t203.5 40q107 0 230.5 -46t134.5 -126q113 78 216 298q-118 -77 -229 -77q-189 0 -270 140q-113 -145 -416 -145q-351 0 -351 169q0 47 36.5 83.5t81.5 37.5l130 3q79 2 79 74
q0 90 -141 90h-63v108h66q57 0 97.5 36.5t40.5 94.5q0 127 -236 127q-126 0 -191 -84.5t-65 -215.5v-169q0 -157 -103 -264t-260 -107q-190 0 -298 138.5t-108 333.5q0 345 280 488l69 -96q-213 -117 -213 -373q0 -140 71 -252t204 -112q218 0 225 278l5 194q4 169 118 265
t267 96q151 0 266.5 -58.5t115.5 -176.5q0 -155 -125 -190q54 -4 89.5 -47.5t35.5 -104.5t-50.5 -116.5t-118.5 -55.5h-106q-59 0 -59 -34q0 -50 157 -50q396 0 396 254v556h150v-556q0 -101 53 -170t149 -69q125 0 207 104t82 235q0 285 -230 383l73 96q136 -72 211 -194.5
t75 -276.5zM2003 -251q0 43 -87.5 65t-147.5 22q-166 0 -166 -54q0 -42 80.5 -68t141.5 -26q179 0 179 61z" />
    <glyph glyph-name="k3th3th4r3" horiz-adv-x="2811" 
d="M1647 80q397 0 397 267v573h148v-573q0 -103 50.5 -174.5t148.5 -71.5q128 0 211.5 107t83.5 243q0 290 -239 393l81 99q285 -143 285 -495q0 -455 -403.5 -638t-947.5 -183q-528 0 -922.5 187t-394.5 658q0 228 204 471l93 -86q-170 -207 -170 -385q0 -403 365.5 -564
t836.5 -161q669 0 976 237q-33 -5 -61 -5q-192 0 -274 142q-101 -145 -411 -145q-352 0 -352 166q0 50 36.5 87t101.5 38t126 5t61 79q0 69 -88 86q-30 6 -142 6v113h93q59 0 97.5 39t38.5 98q0 131 -237 131q-120 0 -184 -84.5t-66 -208.5l-3 -176q-3 -161 -103.5 -266
t-259.5 -105q-190 0 -299 138.5t-109 332.5q0 348 283 488l66 -96q-211 -116 -211 -372q0 -141 71 -252.5t203 -111.5q225 0 225 286v157q0 169 118.5 279t289.5 110q131 0 247 -57.5t116 -179.5q0 -162 -126 -197q54 -7 90.5 -48.5t36.5 -110.5q0 -59 -43 -109.5
t-101 -64.5l-132 -12q-56 -9 -56 -40q0 -44 155 -44z" />
    <glyph glyph-name="k3th3th4r3u1" horiz-adv-x="2811" 
d="M1647 80q397 1 397 269v571h148v-571q0 -103 50.5 -174.5t148.5 -71.5q128 0 211.5 107t83.5 243q0 288 -239 391l81 99q285 -143 285 -493q0 -302 -213 -499q89 -25 141.5 -98.5t52.5 -176.5t-79.5 -183.5t-194.5 -80.5t-194.5 81.5t-79.5 194.5q0 31 5 61
q-329 -120 -782 -120q-536 0 -930 187t-394 658q0 226 204 469l93 -86q-170 -207 -170 -383q0 -403 365.5 -564t836.5 -161q669 0 976 237q-33 -5 -61 -5q-192 0 -274 142q-101 -145 -411 -145q-352 0 -352 164q0 50 36.5 87t101.5 38t126 8t61 76q0 71 -59 82.5t-171 11.5
v113h93q59 0 97.5 39t38.5 98q0 128 -237 128q-246 0 -250 -265l-3 -201q-2 -160 -103 -265.5t-260 -105.5q-190 0 -299 138.5t-109 332.5q0 346 283 486l66 -96q-211 -116 -211 -370q0 -141 71 -252.5t203 -111.5q225 0 225 286v181q0 168 116 265.5t272 97.5t269.5 -56.5
t113.5 -178.5q0 -162 -126 -197q54 -7 90.5 -55t36.5 -106q0 -65 -41.5 -115.5t-114.5 -62.5l-126 -9q-50 -10 -50 -39q0 -44 155 -44zM2680 -312q0 69 -46 115.5t-116 46.5q-68 0 -115 -46t-47 -114t48 -116t116 -48t114 46.5t46 115.5z" />
    <glyph glyph-name="k3th3th4r3u2" horiz-adv-x="2811" 
d="M1491 124q0 -44 155 -44q398 0 398 269v571h148v-571q0 -106 50.5 -176t148.5 -70q127 0 211 106.5t84 242.5q0 289 -239 393l81 98q285 -143 285 -493q0 -318 -236 -519q96 -30 153 -109.5t57 -194.5t-89.5 -203t-215.5 -88t-215.5 89.5t-89.5 215.5q0 44 12 89
q-312 -101 -720 -101q-536 0 -930 186.5t-394 658.5q0 225 204 469l93 -87q-170 -206 -170 -382q0 -404 365.5 -564.5t836.5 -160.5q669 0 976 236q-33 -5 -61 -5q-192 0 -274 142q-102 -145 -415 -145q-349 0 -349 165q0 50 36.5 87t101.5 38t126 6.5t61 77.5q0 66 -87 88
q-24 6 -142 6v113h93q59 0 97.5 39t38.5 97q0 129 -237 129q-246 0 -250 -265l-3 -202q-2 -160 -103 -265.5t-275 -105.5t-283.5 138.5t-109.5 333.5q0 345 283 486l66 -96q-211 -117 -211 -371q0 -140 71 -252t203 -112q225 0 225 286v181q0 168 116 266t273 98
t269.5 -56.5t112.5 -178.5q0 -162 -126 -197q54 -7 90 -53t36 -108q0 -63 -41 -113.5t-111 -63.5l-126 -9q-54 -10 -54 -40zM2549 -334q28 30 28 70t-29.5 68.5t-69.5 28.5t-68.5 -27t-28.5 -69t28.5 -70.5t70.5 -28.5q41 0 69 28zM2619 -496q56 55 56 123t-28 115
q0 -77 -48.5 -126.5t-118.5 -49.5t-118 47t-50 117q-22 -42 -22 -105t56.5 -119.5t136.5 -56.5t136 55z" />
    <glyph glyph-name="k3n1" horiz-adv-x="2117" 
d="M2115 472q0 -356 -289 -495l-70 97q225 94 225 406q0 150 -82.5 246.5t-224.5 96.5q-87 0 -139.5 -66t-52.5 -151v-606h-134v606q0 91 -66 154t-166 63t-151 -106.5t-51 -228.5v-136q0 -164 -101 -268.5t-277 -104.5t-283.5 140t-107.5 334q0 345 279 490l84 -84
q-228 -115 -228 -387q0 -140 71 -254t204 -114q220 0 226 297l4 183q3 149 102 254t250 105q188 0 279 -143q84 143 274 143t307.5 -135.5t117.5 -335.5z" />
    <glyph glyph-name="k3n1u1" horiz-adv-x="2264" 
d="M2266 428q0 -179 -101 -314t-259 -135t-238 94.5t-80 254.5t97 270.5t266 110.5q45 0 89 -12q-105 126 -302 126q-256 0 -256 -229v-594h-133v594q0 90 -62.5 159.5t-153.5 69.5q-114 0 -166 -106.5t-52 -228.5v-136q0 -164 -101 -268.5t-276 -104.5t-284 140t-109 334
q0 350 280 490l84 -84q-228 -113 -228 -387q0 -140 71 -254t204 -114q218 0 225 302l4 175q3 151 102.5 256.5t250.5 105.5q79 0 162.5 -37.5t115.5 -103.5q105 141 328 141q219 0 370.5 -145.5t151.5 -369.5zM1765.5 174q49.5 -68 150.5 -68t156 85t55 189t-28 174
q-37 24 -144 24t-173 -72t-66 -168t49.5 -164z" />
    <glyph glyph-name="k3n1u2" horiz-adv-x="2482" 
d="M2072 722q200 -24 305.5 -165t105.5 -367q0 -225 -138 -401t-371 -176q-138 0 -256 80l52 108q98 -76 204 -76q183 0 284 142t101 330q0 319 -223 385q52 -101 52 -199q0 -172 -75 -286t-234 -114t-232.5 94.5t-73.5 252.5t97.5 274t259.5 116q-56 103 -227 103
q-103 0 -168 -64t-65 -168v-591h-136v591q0 94 -61 163t-161 69t-149 -103t-49 -228v-136q0 -164 -100.5 -268.5t-276.5 -104.5t-284 140t-108 334q0 341 280 486l84 -84q-228 -115 -228 -383q0 -140 71 -254t204 -114q216 0 225 302l5 175q4 157 93.5 257.5t243.5 100.5
q208 0 277 -150q65 150 284 150q270 0 388 -221zM2066 351q0 130 -66 249q-19 2 -42 2q-120 0 -191 -78t-71 -186t44 -174t133 -66q193 0 193 253z" />
    <glyph glyph-name="k3m1" horiz-adv-x="1752" 
d="M1754 0h-784v62q116 124 230.5 260.5t114.5 292.5q0 205 -167 205q-104 0 -169 -95t-65 -203v-170q0 -159 -102 -266t-276 -107t-282.5 140t-108.5 334q0 347 279 490l84 -84q-228 -115 -228 -387q0 -134 73.5 -251t201.5 -117q223 0 223 302v170q0 180 143 273.5
t333 93.5q237 0 368.5 -134.5t131.5 -373.5v-435zM1620 111v324q0 357 -266 393q104 -37 104 -222q0 -126 -78 -259.5t-186 -235.5h426z" />
    <glyph glyph-name="k3m1u1" horiz-adv-x="1756" 
d="M1725 0q52 -71 52 -173t-80.5 -181.5t-194.5 -79.5t-193.5 81t-79.5 181t49 172h-307v61q173 167 258.5 299t85.5 255q0 205 -167 205q-104 0 -169 -95.5t-65 -203.5v-169q0 -160 -102 -266.5t-261 -106.5q-190 0 -298 139.5t-108 334.5q0 348 280 490l84 -84
q-228 -115 -228 -387q0 -135 73 -252t201 -117q224 0 224 303v169q0 182 143 275t330 93q237 0 369.5 -135t132.5 -373v-435h-29zM1620 111v324q0 318 -265 387q103 -37 103 -217q0 -123 -77.5 -258.5t-186.5 -235.5h426zM1617.5 -274.5q46.5 46.5 46.5 110.5t-37 109.5
t-94 54.5h-61q-56 -9 -94.5 -55t-38.5 -108t48 -110t116 -48t114.5 46.5z" />
    <glyph glyph-name="k3m1u2" horiz-adv-x="1756" 
d="M1754 0h-76q76 -86 76 -208t-88 -211t-215 -89t-217 90t-90 211t80 207h-254v62q201 195 273 293.5t72 260.5q0 204 -167 204q-104 0 -169 -95t-65 -203v-169q0 -160 -102 -266.5t-276 -106.5t-282.5 139.5t-108.5 334.5q0 347 279 489l84 -84q-228 -115 -228 -386
q0 -135 73.5 -252t201.5 -117q223 0 223 303v169q0 180 143 273.5t333 93.5q237 0 368.5 -134.5t131.5 -372.5v-436zM1620 112v324q0 323 -266 386q104 -37 104 -216q0 -123 -77.5 -258.5t-186.5 -235.5h426zM1517 -177q28 28 28 69t-29.5 69t-69.5 28t-69 -27t-29 -69
t29 -70t70 -28q42 0 70 28zM1587.5 -339.5q56.5 55.5 56.5 123.5t-29 114q0 -77 -48.5 -125.5t-118.5 -48.5t-118 46t-50 116q-22 -42 -22 -105t56.5 -119.5t136.5 -56.5t136.5 55.5z" />
    <glyph glyph-name="k3r3" horiz-adv-x="1825" 
d="M1826 413q0 -312 -215 -549t-613 -237q-355 0 -605 229.5t-250 577.5q0 282 174 509l98 -69q-157 -202 -157 -449q0 -291 219 -484.5t521 -193.5t500 185.5t198 489.5q0 148 -73 274t-199 126q-125 0 -180 -101.5t-55 -237.5v-140q0 -163 -101 -263.5t-283 -100.5
t-286 138.5t-104 345.5q0 335 286 480l75 -89q-223 -112 -223 -384q0 -139 64 -254t190 -115t187 90t61 220v164q0 159 108 263.5t270 104.5q203 0 298 -156.5t95 -373.5z" />
    <glyph glyph-name="k3r3u1" horiz-adv-x="1825" 
d="M1826 413q0 -331 -229 -558q94 -24 151.5 -97.5t57.5 -179.5t-80 -185.5t-194 -79.5t-193.5 81t-79.5 193q0 40 9 76q-126 -36 -270 -36q-353 0 -604 230t-251 578q0 282 174 508l98 -69q-157 -202 -157 -449q0 -289 219 -483.5t521 -194.5t500 185.5t198 490.5
q0 154 -71 277t-198 123q-128 0 -183 -102t-55 -240v-135q0 -166 -103 -266.5t-283 -100.5t-284 139.5t-104 342.5q0 337 286 482l75 -88q-223 -113 -223 -387q0 -138 65 -252.5t189 -114.5t186 91.5t62 216.5v160q0 160 108 267t270 107q203 0 298 -156.5t95 -373.5z
M1693 -413q0 69 -46.5 115.5t-115.5 46.5q-68 0 -115 -46.5t-47 -114.5t47.5 -115.5t115.5 -47.5t114.5 47t46.5 115z" />
    <glyph glyph-name="k3r3u2" horiz-adv-x="1825" 
d="M1826 415q0 -345 -241 -573q99 -30 157.5 -109t58.5 -195t-88.5 -204.5t-214.5 -88.5t-216 90t-90 215q0 51 18 100q-101 -21 -212 -21q-355 0 -605 229.5t-250 577.5q0 280 174 507l98 -69q-157 -202 -157 -447q0 -291 219 -484.5t521 -193.5t500 185.5t198 489.5
q0 155 -70 277t-210 122q-114 0 -170.5 -101t-56.5 -242v-135q0 -165 -103 -265.5t-283 -100.5t-284 139.5t-104 341.5q0 338 286 483l75 -89q-223 -112 -223 -387q0 -137 65 -251.5t189 -114.5t186 91t62 216v169q0 159 108 262.5t270 103.5q204 0 298.5 -155.5
t94.5 -372.5zM1564 -424.5q28 28.5 28 68.5t-29 69t-70 29t-69 -27t-28 -69t28 -70.5t70 -28.5t70 28.5zM1634 -586q56 54 57 122q0 68 -29 114q0 -75 -48 -124.5t-118 -49.5t-118 47t-51 115q-21 -42 -21 -104t56 -119t136 -57t136 56z" />
    <glyph glyph-name="k3l3" horiz-adv-x="1532" 
d="M1534 469q0 -143 -75 -261.5t-203 -181.5l-72 82q225 101 225 382q0 134 -72.5 233.5t-213.5 99.5q-209 0 -209 -312v-131q0 -162 -101 -258t-275 -96t-283.5 132t-109.5 321q0 335 280 464l84 -82q-228 -98 -228 -364q0 -137 73 -244.5t202 -107.5q216 0 225 288l5 168
q5 160 92 251t243 91q201 0 307 -133.5t106 -340.5zM1482 -329q0 -123 -62.5 -217t-174.5 -94t-177 73t-65 181v93q0 197 -189 197q-30 0 -57 -2q132 -113 132 -266q0 -110 -57.5 -193t-163.5 -83q-105 0 -159 85.5t-54 198.5q0 159 99.5 258.5t259.5 99.5q117 0 207 -67.5
t90 -178.5v-98q0 -197 123 -197q66 0 105.5 74t39.5 148q0 167 -153 258l62 66q194 -103 194 -336zM784 -361q0 162 -140 211q-88 -86 -88 -228q0 -62 30.5 -111.5t83.5 -49.5t83.5 59.5t30.5 118.5z" />
    <glyph glyph-name="k3l3u1" horiz-adv-x="1532" 
d="M1534 469q0 -143 -75 -261.5t-203 -181.5l-72 82q225 101 225 381q0 135 -72.5 234.5t-213.5 99.5q-209 0 -209 -312v-131q0 -162 -101 -258t-275 -96t-283.5 132t-109.5 321q0 336 280 464l84 -81q-228 -99 -228 -365q0 -137 73 -244.5t202 -107.5q216 0 225 288l5 168
q5 158 92.5 250t242.5 92q203 0 308 -134t105 -340zM1482 -774q0 -89 -61 -150t-149 -61t-150 61.5t-62 153.5t70 155q-127 64 -127 228v94q0 197 -189 197q-30 0 -57 -3q132 -112 132 -265q0 -110 -57.5 -193t-163.5 -83q-105 0 -159 85.5t-54 197.5q0 160 99.5 259.5
t259.5 99.5q117 0 207 -67.5t90 -178.5v-98q0 -197 123 -197q66 0 105.5 74t39.5 148q0 167 -153 258l62 66q194 -103 194 -336q0 -178 -103 -264q103 -61 103 -181zM1396 -774q0 51 -37 88t-88 37q-52 0 -87.5 -37t-35.5 -88q0 -52 35.5 -88t87.5 -36q51 0 88 36t37 88z
M784 -361q0 162 -140 211q-88 -87 -88 -228q0 -63 30.5 -112t83.5 -49t83.5 59.5t30.5 118.5z" />
    <glyph glyph-name="k3l3u2" horiz-adv-x="1532" 
d="M1534 469q0 -143 -75 -261.5t-203 -181.5l-72 82q225 101 225 381q0 135 -72.5 234.5t-213.5 99.5q-209 0 -209 -312v-131q0 -162 -101 -258t-275 -96t-283.5 132t-109.5 321q0 336 280 464l84 -81q-228 -99 -228 -365q0 -137 73 -244.5t202 -107.5q216 0 225 288l5 168
q5 160 92 251t243 91q203 0 308 -134t105 -340zM1484 -802q0 -96 -69 -164.5t-165 -68.5t-165.5 67.5t-69.5 178.5t101 182q-113 68 -113 220v94q0 197 -189 197q-30 0 -57 -3q132 -112 132 -265q0 -110 -57.5 -193t-163.5 -83q-105 0 -159 85.5t-54 197.5q0 160 99.5 259.5
t259.5 99.5q117 0 207 -67.5t90 -178.5v-98q0 -197 123 -197q66 0 105.5 74t39.5 148q0 167 -153 258l62 66q194 -103 194 -336q0 -187 -113 -271q115 -66 115 -202zM1322 -729q0 75 -75 75t-75 -75t75 -75t75 75zM1356 -906q42 42 42 94t-22 89q0 -58 -36.5 -96.5
t-91.5 -38.5q-54 0 -90.5 36t-39.5 90q-16 -33 -16 -82t43.5 -92t106.5 -43q62 0 104 43zM784 -361q0 162 -140 211q-88 -87 -88 -228q0 -63 30.5 -112t83.5 -49t83.5 59t30.5 119z" />
    <glyph glyph-name="k4u1" horiz-adv-x="2268" 
d="M2211 0q59 -76 59 -182t-79.5 -186t-193.5 -80t-194 81t-80 186t59 181h-745v314h-416v69q129 60 129 214q0 96 -72.5 161t-171.5 65q-98 0 -170.5 -62.5t-72.5 -158.5q0 -138 123 -197l-56 -100q-185 91 -185 297q0 148 108 244.5t256 96.5q147 0 255 -98t108 -231
t-51 -189h216v133q0 176 124 280.5t309 104.5t301 -100.5t116 -284.5v-244h-708v-204h952v810h134v-920h-54zM1749 425v96q0 135 -73.5 218.5t-205.5 83.5q-133 0 -210.5 -84.5t-77.5 -217.5v-96h567zM2157 -172q0 69 -46.5 115.5t-115.5 46.5q-68 0 -115 -46.5t-47 -114.5
t47.5 -116t115.5 -48t114 47t47 116z" />
    <glyph glyph-name="k4u2" horiz-adv-x="2264" 
d="M2266 1h-76q73 -87 73 -208t-88.5 -210t-214.5 -89t-216 90t-90 210t77 207h-694v314h-415v68q128 60 128 215q0 96 -72.5 160.5t-170.5 64.5q-99 0 -171.5 -62t-72.5 -158q0 -138 124 -197l-57 -101q-185 92 -185 298q0 148 108 244t256 96t256 -97.5t108 -230.5
t-52 -190h216v134q0 176 123 280t309 104q187 0 303 -99.5t116 -284.5v-244h-708v-204h951v809h135v-919zM1750 425v96q0 136 -74 219t-206 83q-133 0 -210.5 -84t-77.5 -218v-96h568zM2026.5 -175q28.5 28 28.5 69t-29.5 69t-70.5 28t-69 -27t-28 -69t28 -70t70 -28
t70.5 28zM2096.5 -338q56.5 55 56.5 123t-29 115q0 -76 -48 -125t-118 -49t-118 46t-51 116q-21 -42 -21 -104t56 -119.5t136 -57.5t136.5 55z" />
    <glyph glyph-name="k4r1" horiz-adv-x="2268" 
d="M2270 -6q0 -211 -150.5 -317.5t-314.5 -106.5t-300 57t-136 153q0 94 111 129.5t228 35.5q317 0 358 -138q77 84 77 187v8h-1106v314h-416v68q129 68 129 215q0 96 -72.5 160t-171.5 64q-98 0 -170.5 -61.5t-72.5 -157.5q0 -138 123 -197l-56 -101q-185 92 -185 298
q0 148 108 243.5t256 95.5q147 0 254 -97.5t107 -231.5t-49 -188h216v134q0 174 122.5 278.5t306.5 104.5q185 0 303 -102.5t118 -280.5v-244h-717v-204h961v808h139v-926zM1749 426v96q0 136 -73.5 218.5t-205.5 82.5q-133 0 -215.5 -83.5t-82.5 -217.5v-96h577zM1726 -170
q-202 0 -202 -63q0 -40 86 -64.5t145 -24.5t130 12t71 51q0 40 -86 64.5t-144 24.5z" />
    <glyph glyph-name="k4r2" horiz-adv-x="2268" 
d="M2266 -13q0 -201 -179 -310.5t-394 -109.5q-474 0 -474 214q0 83 73 128.5t160 45.5q155 0 213 -94q38 96 169 96q68 0 128.5 -42.5t82.5 -107.5q84 84 84 180v12h-1092v315h-415v68q128 60 128 215q0 96 -72.5 161t-170.5 65q-99 0 -171.5 -62.5t-72.5 -158.5
q0 -138 124 -197l-57 -101q-185 91 -185 298q0 147 108 244t256 97t256 -98t108 -231t-52 -190h216v133q0 177 124 281.5t309 104.5t301.5 -100.5t116.5 -285.5v-243h-708v-204h951v810h135v-933zM1750 424v96q0 136 -74 219.5t-206 83.5q-133 0 -210.5 -85t-77.5 -218v-96
h568zM1949 -268q0 44 -35.5 78.5t-79.5 34.5q-45 0 -76.5 -29.5t-31.5 -71.5v-28h-113v40q0 42 -47 65.5t-93 23.5q-122 0 -122 -66q0 -104 272 -104q129 0 189.5 7.5t136.5 49.5z" />
    <glyph glyph-name="k4n1" horiz-adv-x="2266" 
d="M2262 27h-1226v304h-413v70q128 54 128 206q0 96 -72.5 156t-169.5 60t-170 -59t-73 -152q0 -133 124 -192l-56 -99q-185 89 -185 291q0 145 106.5 238t254.5 93q145 0 254.5 -94.5t109.5 -224.5t-52 -186h214v129q0 178 125 277t305 99q181 0 299.5 -98t118.5 -278v-236
h-706v-196h950v786h134v-894zM2245 -312q0 -234 -204 -330l-54 86q148 69 148 251q0 86 -50.5 144t-136.5 58q-47 0 -77.5 -41t-30.5 -90v-388h-113v388q0 51 -36 91t-88 40q-83 0 -131 -61.5t-48 -147.5q0 -180 155 -246l-66 -84q-201 96 -201 325q0 134 81 225.5t219 91.5
t171 -113q33 115 168 115t214.5 -91t79.5 -223zM1748 438v95q0 133 -75 211.5t-206 78.5t-208.5 -78.5t-77.5 -211.5v-95h567z" />
    <glyph glyph-name="k4n1u1" horiz-adv-x="2272" 
d="M2262 28h-1226v304h-413v70q128 54 128 206q0 96 -72.5 155.5t-169.5 59.5t-169.5 -58.5t-72.5 -151.5q0 -133 123 -192l-56 -99q-185 89 -185 291q0 145 106.5 237.5t254.5 92.5q145 0 254.5 -93.5t109.5 -223.5t-52 -187h214v129q0 178 125.5 276.5t305.5 98.5
t298.5 -97.5t118.5 -277.5v-236h-705v-196h949v786h134v-894zM2194 -95q103 -96 103 -230t-62.5 -223.5t-168.5 -89.5t-157.5 68t-51.5 168t58 171.5t161 71.5h17q-56 57 -155 57q-164 0 -164 -134v-385h-103v390q0 55 -38.5 92t-106.5 37t-119 -62.5t-51 -146.5
q0 -183 139 -241l-51 -89q-197 91 -197 325q0 134 81.5 225.5t211.5 91.5t187 -99q66 99 215 99t252 -96zM1749 439v95q0 133 -74.5 211t-206.5 78t-209.5 -78t-77.5 -211v-95h568zM2189 -358q0 52 -14 91q-9 5 -73 5t-104.5 -43t-40.5 -92t27 -91t74 -42q131 0 131 172z
" />
    <glyph glyph-name="k4n1u2" horiz-adv-x="2268" 
d="M2262 28h-1227v304h-412v70q128 54 128 206q0 96 -72.5 155.5t-170.5 59.5t-170 -58.5t-72 -151.5q0 -133 124 -192l-57 -99q-184 89 -184 291q0 145 106.5 237.5t254.5 92.5q145 0 254 -93.5t109 -223.5t-51 -187h213v129q0 178 125.5 276.5t305.5 98.5q182 0 300 -98.5
t118 -276.5v-236h-706v-196h949v786h135v-894zM2208 -251q69 -97 69 -246t-94.5 -266.5t-247.5 -117.5q-100 0 -184 59l44 88q64 -49 138 -49q110 0 178 87t68 202q0 188 -128 234q20 -54 20 -110q0 -276 -202 -276q-91 0 -142.5 72t-51.5 166t56.5 176.5t147.5 91.5
q-37 38 -148 38q-152 0 -152 -131v-393h-103v393q0 57 -37 94t-107 37t-121.5 -62.5t-51.5 -149.5q0 -182 134 -246l-49 -88q-193 91 -193 327q0 135 82 228.5t210 93.5t184 -84q66 84 200 84q218 0 279 -138q133 -17 202 -114zM1748 439v95q0 133 -75 211t-207 78
t-208.5 -78t-76.5 -211v-95h567zM1975 -390q0 86 -35 150q-9 2 -19 2q-67 0 -107.5 -53t-40.5 -111t25 -100.5t71 -42.5q106 0 106 155z" />
    <glyph glyph-name="k4r3" horiz-adv-x="2515" 
d="M1604 -242q451 0 613 40.5t162 181.5v21h-1095v350h-415v66q129 57 129 202q0 90 -67 147t-175 57t-177 -53t-69 -146q0 -131 123 -188l-54 -96q-186 89 -186 284q0 142 109 230.5t254 88.5q146 0 254 -88.5t108 -218.5t-50 -182h216v125q0 174 125.5 269t304.5 95
t300 -95t121 -269v-228h-715v-237h959v812h134v-955q0 -209 -178.5 -268t-744.5 -59q-719 0 -1081 205.5t-362 744.5q0 152 110 349l101 -61q-91 -165 -91 -288q0 -489 323 -662.5t1014 -173.5zM2000 454v93q0 131 -76.5 203.5t-205.5 72.5q-131 0 -213.5 -74t-82.5 -202
v-93h578z" />
    <glyph glyph-name="k4r3u1" horiz-adv-x="2517" 
d="M1605 -243q450 0 612 40.5t162 181.5v21h-1094v351h-415v66q128 57 128 202q0 92 -68 148t-174 56q-107 0 -176 -53t-69 -146q0 -131 122 -187l-54 -96q-186 88 -186 283q0 143 109.5 231t254.5 88t253 -88.5t108 -218.5t-49 -181h216v124q0 174 125.5 269t304.5 95
t300 -95t121 -269v-228h-716v-238h959v813h135v-956q0 -154 -120 -235q127 -81 127 -231q0 -116 -80 -195.5t-194 -79.5t-193.5 81t-79.5 194q0 76 36 140q-56 -3 -273 -3q-890 0 -1240 216.5t-350 736.5q0 152 111 349l100 -61q-91 -164 -91 -288q0 -490 323.5 -663.5
t1014.5 -173.5zM2000 455v92q0 131 -76 204t-206 73q-131 0 -213 -74.5t-82 -202.5v-92h577zM2408 -496q0 69 -47 115.5t-115 46.5t-115 -46t-47 -114t48 -116t115 -48t114 46.5t47 115.5z" />
    <glyph glyph-name="k4r3u2" horiz-adv-x="2515" 
d="M2214.5 -203q164.5 41 164.5 181v22h-1095v351h-415v66q129 56 129 202q0 93 -69 148.5t-175 55.5q-104 0 -174 -52t-70 -148q0 -130 123 -187l-54 -96q-186 89 -186 283q0 143 109 231.5t254 88.5q146 0 254 -88.5t108 -218.5t-50 -182h216v125q0 174 125.5 269
t304.5 95t300 -96t121 -268v-228h-715v-238h959v813h134v-956q0 -169 -140 -247q140 -91 140 -258q0 -129 -88.5 -217t-214.5 -88t-216 89t-90 201t56 191q-36 -1 -162 -1q-938 0 -1294.5 212.5t-356.5 740.5q0 153 110 350l101 -61q-91 -165 -91 -289q0 -478 316 -657.5
t892 -179.5q575 0 739.5 41zM2000 454v93q0 130 -76.5 203t-205.5 73q-131 0 -213.5 -74t-82.5 -202v-93h578zM2276 -510q28 29 28 69t-29 68.5t-70 28.5t-69 -27t-28 -69q0 -41 28 -70t70 -29t70 29zM2346.5 -672q56.5 55 56.5 123t-30 115q0 -77 -47.5 -126.5
t-117.5 -49.5t-118 47t-51 115q-21 -42 -21 -87q0 -79 56 -135.5t136 -56.5t136.5 55z" />
    <glyph glyph-name="ngu1" horiz-adv-x="1691" 
d="M1689 249q0 -145 -123 -220q101 -84 101 -207t-79.5 -203t-194.5 -80t-194.5 81t-79.5 188t63 186q-26 5 -42 9v141q38 -45 237 -45q75 0 127 42t52 116q0 150 -189 150h-126v120h124q191 0 191 136q0 86 -83.5 123.5t-172.5 37.5t-185.5 -51t-96.5 -152v-621h-136v621
q0 98 -87 150t-211 52t-221 -112t-97 -272q40 119 204 119q124 0 200 -80t76 -206t-84 -209.5t-214 -83.5q-157 0 -231 122.5t-74 293.5q0 236 128 392t345 156t338 -132q113 132 357 132q141 0 259.5 -71t118.5 -204q0 -67 -36.5 -122t-99.5 -73q136 -45 136 -224z
M1553 -186q0 69 -46 116t-116 47q-68 0 -115 -46.5t-47 -114.5t48 -116t116 -48t114 46.5t46 115.5zM560.5 149.5q44.5 50.5 44.5 120.5t-40.5 120.5t-111.5 50.5t-114 -49t-43 -118t44 -122t110 -53t110.5 50.5z" />
    <glyph glyph-name="ngu2" horiz-adv-x="1691" 
d="M1553 473q136 -45 136 -211t-136 -242q114 -90 114 -228t-88.5 -226t-215.5 -88t-216 89.5t-89 213.5t85 213q-24 5 -36 10v150q19 -22 115 -38t163 -16t119 42t52 115q0 150 -189 150h-126v120h124q191 0 191 135q0 84 -80 122.5t-175 38.5q-94 0 -188.5 -50.5
t-94.5 -152.5v-620h-136v620q0 97 -85 150t-177 53q-158 0 -256 -112t-98 -272q42 118 204 118q123 0 199.5 -78.5t76.5 -205.5t-84 -210.5t-214 -83.5q-158 0 -231.5 122.5t-73.5 293.5q0 236 128 392t345 156t338 -132q113 132 357 132q141 0 259.5 -71t118.5 -205
q0 -66 -36.5 -121t-99.5 -73zM1429.5 -191.5q28.5 28.5 28.5 68.5t-30 68.5t-70 28.5t-68 -27t-28 -68q0 -42 28 -70.5t70 -28.5q41 0 69.5 28.5zM1499.5 -354q56.5 55 56.5 123t-29 115q0 -77 -48.5 -126.5t-118.5 -49.5t-118 47t-50 115q-22 -40 -22 -103t56.5 -119.5
t136.5 -56.5t136.5 55zM560.5 150q44.5 50 44.5 120t-40.5 121t-111.5 51t-114 -49.5t-43 -118.5t44 -121.5t110 -52.5t110.5 50z" />
    <glyph glyph-name="ngk1" horiz-adv-x="1606" 
d="M1528 499q87 -92 87 -232q0 -122 -70 -205.5t-208 -83.5q-59 0 -103 17v125q37 -19 84 -19q164 0 164 181q0 171 -194 171h-73v-40q0 -189 -81 -313.5t-261 -124.5q-192 0 -256 138q-42 -137 -211 -137q-128 0 -194.5 85t-66.5 227t125 207q-103 38 -103 195
q0 112 83 182.5t195 70.5q137 0 186 -117q57 117 255 117q146 0 237.5 -92.5t91.5 -235.5v-42h91q152 0 222 -74zM1077 573v37q0 88 -59.5 150t-142.5 62t-141 -64.5t-58 -152.5v-32h401zM1077 418v35h-401v-35q0 -319 204 -319q197 0 197 319zM561 708q-15 111 -116 111
q-58 0 -102.5 -35.5t-44.5 -93.5q0 -103 93 -122q32 5 64 5h91v42q0 44 15 93zM546 416v37h-63q-90 0 -152.5 -45.5t-62.5 -129.5q0 -179 150 -179q61 0 98 44t37 97q0 11 -7 176z" />
    <glyph glyph-name="ngk1u1" horiz-adv-x="1624" 
d="M1208 617v-42h136q124 0 184 -42.5t60 -130.5q0 -92 -61 -131q61 -33 61 -117t-62.5 -130.5t-152.5 -46.5t-146 36l47 96q39 -24 88 -24q105 0 105 72q0 59 -59 59h-102v118h101q51 0 51 59q0 60 -64 60h-186v-55q0 -420 -330 -420q-196 0 -262 134q-42 -134 -211 -134
q-127 0 -193.5 84t-66.5 225q0 139 120 207q-99 44 -99 195q0 112 81.5 183t194.5 71q148 0 191 -118q64 118 256 118q145 0 232 -95t87 -231zM1076 575v24q0 90 -55.5 157t-145.5 67t-144 -68.5t-54 -160.5v-19h399zM1076 405v48h-399v-50q0 -313 202 -313q197 0 197 315z
M560 707q-15 118 -118 118q-59 0 -103 -38t-44 -98q0 -102 95 -121q36 7 64 7h91v29q0 52 15 103zM545 401v52h-63q-215 0 -215 -175q0 -73 39.5 -130.5t104.5 -57.5q72 0 108 52.5t36 97.5q0 5 -10 161z" />
    <glyph glyph-name="ngk1u2" horiz-adv-x="1583" 
d="M1585 180q0 -74 -47 -127.5t-120 -53.5h-954q-56 0 -110 -31t-54 -90q0 -114 164 -114h1099v-115h-1121q-116 0 -196 58.5t-80 170.5q0 110 82 175t194 65h929q76 0 76 84q0 66 -73 66h-87v110h75q78 0 78 58q0 71 -96 71q-47 0 -153 -3v-27q0 -144 -88 -234t-233 -90
q-195 0 -258 110q-42 -110 -219 -110q-110 0 -178 66.5t-68 176.5q0 54 33 102t82 65q-93 30 -93 160q0 101 78.5 160.5t181.5 59.5q142 0 192 -110q69 110 256 110q131 0 222.5 -77t91.5 -202v-35h171q223 0 223 -186q0 -108 -82 -123q82 -27 82 -140zM1054 629v28
q0 73 -58 119.5t-134 46.5t-132.5 -46.5t-56.5 -122.5v-25h381zM1054 482v22h-379v-22q0 -209 190 -209q91 0 140 58t49 151zM553 737q-14 98 -122 98q-57 0 -99 -29t-42 -94t64 -95q46 12 98 12h89v35q0 37 12 73zM541 479v25h-67q-204 0 -204 -108q0 -121 133 -121
q54 0 100.5 25t46.5 67q0 4 -9 112z" />
    <glyph glyph-name="ngk1r1" horiz-adv-x="1607" 
d="M1077 574v37q0 88 -59.5 150t-142.5 62t-141 -64.5t-58 -152.5v-32h401zM1077 419v35h-401v-35q0 -319 204 -319q197 0 197 319zM561 709q-15 111 -116 111q-58 0 -102.5 -35.5t-44.5 -93.5q0 -103 93 -122q32 5 64 5h91v42q0 44 15 93zM546 417v37h-63
q-90 0 -152.5 -45.5t-62.5 -129.5q0 -179 150 -179q61 0 98 44t37 97q0 11 -7 176zM1215 574h91q152 0 232 -109.5t80 -270.5q0 -273 -210.5 -447t-490.5 -174q-131 0 -252 50.5t-121 162.5q0 89 94 129t207 40t234 -45.5t133 -135.5q275 157 275 427q0 110 -53.5 179.5
t-145.5 69.5h-73v-36q0 -189 -81 -313.5t-261 -124.5q-192 0 -256 138q-42 -137 -211 -137q-128 0 -194.5 85t-66.5 227t125 207q-103 38 -103 195q0 112 83 182t195 70q137 0 186 -116q57 116 255 116q149 0 239 -92t90 -235v-42zM1081 -251q0 42 -85 64t-150 22
q-165 0 -165 -54q0 -44 84 -68.5t138 -24.5q178 0 178 61z" />
    <glyph glyph-name="ngng" horiz-adv-x="2358" 
d="M2358 220q0 -123 -83 -182.5t-210 -59.5t-183 24v122q47 -29 174 -29q173 0 173 132q0 155 -195 155h-96v121h71q220 0 220 143q0 83 -77 129.5t-171 46.5t-175 -49t-81 -150v-623h-133v623q0 97 -71.5 148.5t-172.5 51.5q-32 0 -71 -9q126 -89 126 -200
q0 -153 -126 -190q136 -31 136 -197q0 -111 -90 -180t-205 -69q-180 0 -267 123.5t-87 312.5q0 239 194 396q-94 13 -175 13q-204 0 -356.5 -99.5t-166.5 -286.5q39 118 184 118q116 0 180 -81t64 -204t-66.5 -206.5t-195.5 -83.5q-279 0 -279 413q0 265 180.5 407.5
t429.5 142.5q247 0 344 -50q75 50 223 50q218 0 337 -128q89 128 331 128q141 0 253.5 -79t112.5 -213q0 -67 -34 -125t-95 -74q129 -45 129 -232zM1280 238q0 122 -165 122h-54v118h57q150 0 150 126q0 106 -148 160q-236 -101 -236 -352q0 -118 55.5 -217.5t163.5 -99.5
q66 0 121.5 39t55.5 104zM562 269q0 67 -35.5 112t-100.5 45q-63 0 -101 -43.5t-38 -111.5t35.5 -122t99.5 -54t102 54t38 120z" />
    <glyph glyph-name="ngngu1" horiz-adv-x="2358" 
d="M2358 222q0 -137 -117 -202q96 -84 96 -204t-80.5 -199.5t-194.5 -79.5t-194 81t-80 189t66 187l-24 9v153q69 -59 232 -59q167 0 167 132q0 155 -195 155h-108v121h83q220 0 220 143q0 83 -73.5 128.5t-172.5 45.5t-178.5 -48t-79.5 -149v-625h-133v625q0 94 -74.5 146
t-169.5 52q-40 0 -71 -8q126 -89 126 -200q0 -152 -126 -189q136 -31 136 -200q0 -110 -89 -180t-206 -70q-181 0 -267.5 124t-86.5 316q0 239 194 396q-67 11 -166 11q-211 0 -364.5 -98t-167.5 -286q39 118 184 118q116 0 180 -81t64 -206t-66.5 -208t-195.5 -83
q-279 0 -279 416q0 262 179.5 405t429.5 143q252 0 345 -48q81 48 224 48q226 0 336 -126q87 126 331 126q138 0 252 -78t114 -212q0 -68 -34 -125.5t-95 -74.5q129 -44 129 -231zM2224 -189q0 70 -47 116t-116 46t-115.5 -46t-46.5 -114t47.5 -116t115.5 -48t115 47t47 115
zM1280 240q0 122 -165 122h-54v118h57q150 0 150 126q0 105 -148 159q-236 -100 -236 -351q0 -121 55.5 -220.5t163.5 -99.5q66 0 121.5 39t55.5 107zM562 271q0 67 -35.5 112t-100.5 45q-63 0 -101 -43.5t-38 -114.5t35.5 -123.5t99.5 -52.5t102 54t38 123z" />
    <glyph glyph-name="ngngu2" horiz-adv-x="2358" 
d="M2358 221q0 -148 -129 -209q103 -91 103 -225t-89 -222t-215 -88t-216 89.5t-90 212.5t83 211q-14 5 -26 12v162q68 -68 277 -68q173 0 173 132q0 155 -195 155h-96v121h99q192 0 192 143q0 83 -76 129.5t-171 46.5t-176 -49t-81 -150v-624h-133v624q0 97 -73 148
t-171 51q-37 0 -71 -8q126 -89 126 -201q0 -152 -126 -189q136 -31 136 -197q0 -110 -89 -180t-206 -70q-181 0 -267.5 124t-86.5 313q0 239 194 396q-79 12 -182 12q-193 0 -347.5 -98.5t-168.5 -286.5q39 118 184 118q116 0 180 -81t64 -204t-66.5 -206.5t-195.5 -83.5
q-279 0 -279 413q0 262 179.5 405.5t429.5 143.5t345 -49q79 49 223 49q226 0 337 -127q88 127 331 127q141 0 253.5 -78.5t112.5 -212.5q0 -68 -34 -125.5t-95 -74.5q129 -44 129 -231zM2094.5 -192.5q28.5 28.5 28.5 68.5t-30 68t-70 28t-68.5 -27t-28.5 -67
q0 -42 28.5 -70.5t70.5 -28.5q41 0 69.5 28.5zM2164 -355q56 55 56 123t-28 114q0 -76 -48 -125.5t-118 -49.5t-118.5 47t-50.5 115q-22 -41 -22 -87q0 -80 56.5 -136t136.5 -56t136 55zM1280 239q0 122 -165 122h-54v118h57q150 0 150 126q0 105 -148 159
q-236 -100 -236 -351q0 -118 55.5 -217.5t163.5 -99.5q66 0 121.5 39t55.5 104zM562 270q0 67 -35.5 112t-100.5 45q-63 0 -101 -43.5t-38 -111.5t35.5 -122t99.5 -54t102 54t38 120z" />
    <glyph glyph-name="ch1u1" horiz-adv-x="1452" 
d="M1457 0h-65q59 -73 59 -178t-79.5 -185t-193.5 -80t-194 81t-80 185t56 177h-813v115h553q80 0 143 59.5t63 139.5t-56 132.5t-136 52.5q-78 0 -136 -54t-58 -133q0 -47 23 -86l-133 -5q-15 49 -15 96q0 130 97.5 218.5t227.5 88.5t222 -90.5t92 -219.5q0 -127 -94 -199
h382v805h135v-920zM1338 -167q0 67 -46.5 113.5t-115.5 46.5q-68 0 -115 -46.5t-47 -113.5t48 -114.5t116 -47.5t114 46.5t46 115.5z" />
    <glyph glyph-name="ch1u2" horiz-adv-x="1452" 
d="M1457 0h-86q78 -88 78 -210t-88.5 -210t-214.5 -88t-216 90t-90 210t81 208h-774v116h553q80 0 143 60q63 58 63 138t-56 133t-136 53q-78 0 -136 -54t-58 -133q0 -47 23 -87l-133 -5q-15 50 -15 97q0 130 97.5 218.5t227.5 88.5t222 -91t92 -219q0 -127 -94 -199h382
v804h135v-920zM1212 -178q28 30 28 70t-29.5 67t-69.5 27t-69 -25.5t-29 -67.5t29 -70.5t70 -28.5q42 0 70 28zM1282 -340q56 55 56 123t-28 114q0 -76 -48 -125t-118 -49t-118.5 46.5t-50.5 115.5q-22 -42 -22 -88q0 -80 56.5 -136t136.5 -56t136 55z" />
    <glyph glyph-name="ch1ch1" horiz-adv-x="1452" 
d="M1029 328q0 -150 -91 -213h384v805h135v-1272h-818v71l390 281h-882v115h553q78 0 141 60.5t63 138.5t-56 130t-134 52t-135 -52.5t-57 -132.5q0 -46 23 -86l-135 -5q-15 40 -15 91q0 134 95.5 223t227.5 89t221.5 -87.5t89.5 -207.5zM1322 -235v235h-104l-334 -235h438z
" />
    <glyph glyph-name="ch1ch1u1" horiz-adv-x="1452" 
d="M1457 920v-1272h-65q63 -74 63 -182t-80.5 -188t-194.5 -80t-194 81t-80 187t62 182h-329v71l390 280h-882v116h553q78 0 141 60.5t63 138.5t-56 130.5t-134 52.5t-135 -53t-57 -132q0 -47 23 -86l-135 -5q-15 39 -15 91q0 133 95.5 222.5t227.5 89.5t221.5 -87
t89.5 -223q0 -135 -91 -199h384v805h135zM1322 -234v233h-104l-334 -233h438zM1341 -526q0 69 -47 115.5t-115 46.5q-69 0 -115.5 -46.5t-46.5 -114.5t48 -115.5t115 -47.5t114 46.5t47 115.5z" />
    <glyph glyph-name="ch1ch1u2" horiz-adv-x="1452" 
d="M1457 920v-1272h-74q72 -84 72 -204t-89.5 -209t-215.5 -89t-215.5 90t-89.5 209t73 203h-279v71l390 281h-882v115h553q78 0 141 60.5t63 138.5t-56 130t-134 52t-135 -52.5t-57 -132.5q0 -46 23 -86l-135 -5q-15 40 -15 91q0 134 95.5 223t227.5 89t221.5 -87
t89.5 -223q0 -135 -91 -198h384v805h135zM1322 -235v235h-104l-334 -235h438zM1216.5 -523q28.5 28 28.5 69t-29.5 69t-69.5 28t-68.5 -27t-28.5 -69t28.5 -70t70.5 -28q40 0 68.5 28zM1286.5 -684.5q56.5 55.5 56.5 122.5t-29 114q0 -76 -48 -125t-118 -49t-118 46.5
t-50 115.5q-22 -42 -22 -104t56 -119t136 -57t136.5 55.5z" />
    <glyph glyph-name="ch1ch2" horiz-adv-x="1454" 
d="M1452 28h-1309v108h553q78 0 142.5 57.5t64.5 135.5q0 80 -56.5 130t-136.5 50t-137 -50.5t-57 -115.5t23 -99l-133 -5q-15 52 -15 93q0 129 97.5 214.5t227.5 85.5t222 -87t92 -213t-94 -196h382v784h134v-892zM1487 -365q0 -113 -63.5 -193t-167.5 -80t-164.5 70
t-60.5 171q0 102 65 176t170 74h17q-59 44 -153 44t-163 -67.5t-69 -192.5q0 -174 127 -194v-64h-791v89h273q46 0 84 36.5t38 83.5t-33 77.5t-80 30.5t-82 -30.5t-35 -68.5t24 -77l-113 -3q-15 36 -15 71q0 91 66 151t156 60t152.5 -59t62.5 -146t-36 -126h137
q-38 67 -38 204t100.5 233t246.5 96t245.5 -108t99.5 -258zM1355 -267q-35 22 -93 22t-93.5 -43t-35.5 -101t32 -100.5t90 -42.5t92 47.5t34 104.5t-26 113z" />
    <glyph glyph-name="ch1ch2u1" horiz-adv-x="1460" 
d="M1452 28h-1309v108h553q78 0 142 57.5t64 135.5q0 80 -56.5 130t-136.5 50t-136.5 -50t-56.5 -116q0 -65 23 -99l-134 -5q-14 52 -14 93q0 129 97.5 214.5t227.5 85.5t221.5 -87t91.5 -213t-93 -196h381v784h135v-892zM1458.5 -192q67.5 -70 67.5 -188t-85.5 -205.5
t-214.5 -87.5h-894q-60 0 -60 -46q0 -47 60 -47h1175v-101h-1188q-160 1 -160 147t160 146h935q75 0 121 73t46 151t-87 119q5 -19 5 -48q0 -222 -184 -222q-74 0 -119.5 54t-45.5 128t40.5 133t109.5 74q-44 21 -66 21q-233 0 -233 -194q0 -139 113 -164v-62h-762v82h258
q39 0 73.5 26t34.5 64q0 40 -28.5 67t-67.5 27q-113 0 -113 -96q0 -20 17 -39h-103q-12 27 -12 54q0 76 67.5 127.5t145.5 51.5q79 0 143 -54t64 -123t-32 -103h125q-37 57 -37 137q0 131 89 212t221 81q69 0 145.5 -29.5t97.5 -83.5q111 -12 178.5 -82zM1238 -307
q0 71 -17 94h-19q-47 0 -81.5 -28t-34.5 -75q0 -89 62 -89q90 0 90 98z" />
    <glyph glyph-name="ch1ch2u2" horiz-adv-x="1466" 
d="M1452 30h-1309v108h553q78 0 142.5 57.5t64.5 135.5q0 80 -56.5 130t-136.5 50t-137 -50.5t-57 -115.5t23 -99l-133 -5q-14 52 -14 96q0 128 97 212.5t227 84.5t222 -87t92 -213t-94 -196h382v782h134v-890zM1556 -499q0 -68 -39 -116t-105 -48h-1088q-61 -1 -61 -51
t61 -50h1224v-99h-1231q-159 0 -159 148t159 148h1079q23 0 37.5 24.5t14.5 45.5q0 65 -34 65h-35v81h30q39 0 39 68q0 37 -45 57t-90 20q12 -42 12 -66q0 -232 -167 -232q-79 0 -128 53t-49 132q0 167 152 202q-54 26 -98 26q-94 0 -154 -50.5t-60 -141.5q0 -120 115 -162
v-54h-766v72h266q38 0 72 30.5t34 68.5t-28 65q-30 27 -68 27t-74 -24q-36 -22 -37 -58q0 -36 17 -57h-103q-15 36 -15 61q0 71 70 119t146 48q78 0 137.5 -52t59.5 -123t-27 -103h123q-39 57 -39 137q0 129 89 210t220 81q69 0 152 -28.5t106 -77.5h24q99 0 178.5 -50.5
t79.5 -134.5t-61 -101q64 -16 64 -110zM1156 -413q71 1 71 99t-10 115q-49 0 -96 -35.5t-47 -82.5q0 -96 82 -96z" />
    <glyph glyph-name="ch1ch2r1" horiz-adv-x="1475" 
d="M1453 29h-1310v108h554q78 0 142 57.5t64 135.5q0 79 -56.5 129.5t-136.5 50.5t-136.5 -50t-56.5 -116t22 -99l-133 -5q-14 51 -14 95q0 129 97 213t227 84t222 -87t92 -213t-93 -195h381v783h135v-891zM1539.5 -255.5q73.5 -99.5 73.5 -254.5t-98 -275.5t-266 -120.5
q-76 0 -158 32.5t-82 89.5t66.5 81t129.5 24q182 0 226 -70q79 79 79 258q0 70 -36 143.5t-95 100.5q17 -47 17 -120q0 -251 -201 -251q-83 0 -136 64.5t-53 154.5t55.5 170t143.5 90q-46 42 -114 42q-103 0 -175 -75.5t-72 -163.5t36.5 -151t105.5 -68v-56h-816v79h288
q49 0 92 34.5t43 82.5t-34.5 78.5t-83.5 30.5q-104 0 -104 -99q0 -49 18 -73h-108q-13 39 -13 78q0 91 58.5 143t150.5 52q94 0 158 -54t64 -142t-52 -131h148q-54 71 -54 177q0 150 93 253t243 103q72 0 155.5 -39.5t100.5 -100.5q133 -17 206.5 -116.5zM1295 -388
q0 103 -26 150q-10 3 -20 3q-66 0 -106.5 -50.5t-40.5 -119.5q0 -120 93 -120q100 0 100 137zM1337 -801q0 42 -105 42q-106 0 -106 -26q0 -43 139 -43q72 0 72 27z" />
    <glyph glyph-name="ch1ch2r3" horiz-adv-x="1460" 
d="M1452 30h-1309v108h553q78 0 142 58t64 136q0 79 -56.5 129.5t-136.5 50.5t-136.5 -50.5t-56.5 -116.5q0 -65 23 -99l-134 -4q-14 51 -14 92q0 129 97.5 214.5t227.5 85.5t221.5 -87t91.5 -213t-93 -196h381v782h135v-890zM1526 -366q0 -356 -651 -356q-308 0 -503 87.5
t-195 354.5q0 70 18 116t90 172l78 -45q-98 -162 -98 -240q0 -219 167.5 -287.5t427.5 -68.5q577 0 577 267q0 116 -78 148q15 -44 15 -91q0 -214 -178 -214q-169 0 -169 184q0 84 44.5 147.5t122.5 74.5q-30 26 -108 26t-134.5 -57.5t-56.5 -143.5q0 -155 110 -165v-51
h-624v70h207q38 0 71.5 27t33.5 65q0 37 -25.5 61.5t-62.5 24.5q-38 0 -65 -26t-27 -54t23 -67l-98 -3q-11 32 -11 61q0 77 51.5 128.5t125.5 51.5t124.5 -49.5t50.5 -115.5t-29 -104h85q-31 60 -31 143q0 124 81 209.5t201 85.5q150 0 224 -115q216 -27 216 -251z
M1280 -324q0 71 -26 123h-16q-120 0 -120 -138q0 -101 78 -101q84 0 84 116z" />
    <glyph glyph-name="ch1ch2r3u1" horiz-adv-x="1458" 
d="M1452 30h-1309v108h553q78 0 142 58t64 136q0 79 -56 129.5t-136 50.5t-137 -51t-57 -116t23 -99l-133 -4q-15 51 -15 92q0 129 97.5 214.5t227.5 85.5t222 -87t92 -213t-94 -196h382v782h134v-890zM1514 -366q0 -152 -121 -241q121 -56 121 -192q0 -87 -61.5 -149
t-148.5 -62t-150 63t-63 148q0 49 23 94q-111 -17 -251 -17q-309 0 -502.5 88t-193.5 354q0 84 22 136.5t83 151.5l80 -45q-99 -162 -99 -240q0 -219 167.5 -287.5t427.5 -68.5q578 0 578 267q0 116 -80 148q16 -44 16 -91q0 -214 -178 -214q-169 0 -169 184
q0 84 44.5 147.5t122.5 74.5q-30 26 -108 26t-135 -57.5t-57 -143.5q0 -155 110 -165l-2 -51h-622v70h207q39 0 72 27t33 65q0 37 -25.5 61.5t-61.5 24.5q-37 0 -64 -26t-27 -54t21 -67l-98 -3q-10 32 -10 61q0 77 51.5 128.5t125.5 51.5t124.5 -49.5t50.5 -115.5t-30 -104
h86q-31 60 -31 143q0 124 81 209.5t201 85.5q150 0 223 -115q217 -27 217 -251zM1268 -324q0 71 -27 123h-15q-120 0 -120 -138q0 -101 78 -101q84 0 84 116zM1428 -799q0 52 -36.5 89t-88.5 37q-51 0 -87 -37t-36 -89q0 -51 36 -86.5t87 -35.5q52 0 88.5 35.5t36.5 86.5z
" />
    <glyph glyph-name="ch1ch2r3u2" horiz-adv-x="1458" 
d="M1452 31h-1309v108h553q78 0 142 57.5t64 135.5q0 79 -56 129.5t-136 50.5t-137 -50.5t-57 -115.5t23 -99l-133 -5q-15 52 -15 93q0 129 97.5 214.5t227.5 85.5t222 -87t92 -214t-94 -195h382v781h134v-889zM1514 -365q0 -164 -145 -256q127 -63 127 -208q0 -96 -68 -165
t-166 -69t-166.5 67.5t-68.5 166.5q0 63 33 117q-92 -9 -197 -9q-309 0 -502.5 87t-193.5 354q0 84 22 137t83 151l80 -44q-99 -162 -99 -240q0 -220 167.5 -288.5t427.5 -68.5q578 0 578 268q0 115 -80 148q16 -45 16 -92q0 -213 -178 -213q-169 0 -169 183q0 84 44.5 148
t122.5 74q-30 27 -108 27t-135 -57.5t-57 -144.5q0 -155 110 -164v-52h-624v71h207q39 0 72 27t33 64t-26 62t-62 25t-63 -25.5t-27 -55.5q0 -28 21 -65l-98 -4q-10 32 -10 61q0 77 51.5 128.5t125.5 51.5t124.5 -50t50.5 -116t-30 -103h86q-31 60 -31 143q0 123 81 209
t201 86q150 0 223 -115q217 -28 217 -251zM1268 -323q0 71 -27 122h-15q-120 0 -120 -138q0 -100 78 -100q84 0 84 116zM1334 -757q0 75 -75 75t-75 -75t75 -75t75 75zM1368 -934q43 42 43 92t-23 86q0 -54 -36.5 -92t-90.5 -38t-91 35.5t-40 89.5q-16 -32 -16 -81t44 -92
t106 -43q61 0 104 43z" />
    <glyph glyph-name="ch2u1" horiz-adv-x="2319" 
d="M2321 373q0 -373 -439 -373h-1458q-146 0 -146 -113q0 -56 43.5 -88.5t102.5 -32.5h1873v-118h-1890q-110 0 -185 65.5t-75 172.5t76 167t184 60h1517q123 0 194 87.5t71 216.5q0 188 -164 219q36 -52 36 -155q0 -319 -294 -319q-117 0 -184 88t-67 210t84.5 215.5
t207.5 93.5q-40 54 -233 54q-123 0 -233.5 -88t-110.5 -225q0 -225 177 -267v-69h-1249v116h531q71 0 127.5 36.5t56.5 105.5t-49 112t-122 43t-131.5 -43t-58.5 -115q0 -38 23 -68h-122q-14 32 -14 68q0 119 97 200t211 81t206.5 -78.5t92.5 -185.5t-89 -153h256
q-73 87 -73 218q0 193 142 312.5t334 119.5q261 0 381 -174q363 -35 363 -396zM1941 469q0 118 -49 180h-42q-94 0 -153 -55.5t-59 -123.5q0 -74 32 -128t94 -54q177 0 177 181z" />
    <glyph glyph-name="ch2u2" horiz-adv-x="2394" 
d="M2325 370q70 -42 70 -145t-61.5 -164t-151.5 -61h-1758q-147 0 -147 -113q0 -57 44 -89.5t103 -32.5h1957v-115h-1974q-110 0 -185 65t-75 171t76 166t184 60h1759q40 0 74.5 28.5t34.5 65.5q0 96 -74 96h-61v125h56q69 0 69 93q0 56 -69.5 93t-132.5 37q-13 0 -26 -2
q24 -62 24 -181t-66 -212.5t-190 -93.5q-125 0 -209.5 85t-84.5 209t90.5 209t216.5 95q-71 63 -224 63q-152 0 -258 -88t-106 -228q0 -230 187 -265v-62h-1258v106h531q71 0 128.5 39t57.5 108t-49 109t-123 40t-132.5 -41t-58.5 -111q0 -41 22 -73l-121 -3q-14 35 -14 76
q0 114 94 196t214 82q115 0 207 -75.5t92 -187.5q0 -110 -89 -154h256q-73 85 -73 218q0 190 141 312.5t335 122.5q284 0 388 -167q15 1 30 1q130 0 265 -67t135 -191q0 -121 -70 -149zM1941 478q0 114 -42 171h-14q-88 0 -170 -48.5t-82 -130.5t48 -137.5t117 -55.5
q143 0 143 201z" />
    <glyph glyph-name="ch2r1" horiz-adv-x="2437" 
d="M2442 192q0 -267 -147 -444.5t-377 -177.5q-134 0 -249 57t-115 148t100 126t197 35t202.5 -41.5t123.5 -102.5q150 152 150 403q0 143 -59.5 255.5t-181.5 147.5q49 -94 49 -237t-77.5 -253t-231.5 -110t-229.5 89.5t-75.5 245.5t99 273t257 117q-59 100 -239 100
q-181 0 -287 -118t-106 -289q0 -115 49 -225.5t152 -119.5v-71h-1299v104h553q80 0 145.5 64t65.5 144q0 82 -57.5 137t-139.5 55q-81 0 -140 -56t-59 -122t23 -104l-126 -3q-15 42 -15 91q0 133 95 222.5t225 89.5t221 -84.5t91 -208.5q0 -162 -92 -225h267
q-77 117 -77 304q0 236 146.5 385.5t342.5 149.5q275 0 406 -218q202 -21 311 -171t109 -362zM2011 354q0 150 -63 258q-22 3 -45 3q-120 0 -191 -82.5t-71 -188.5t45.5 -171t131.5 -65q193 0 193 246zM2056 -258q0 38 -73.5 60.5t-149.5 22.5q-138 0 -138 -61
q0 -42 72.5 -62t145.5 -20q143 0 143 60z" />
    <glyph glyph-name="ch2r3" horiz-adv-x="2596" 
d="M2601 275q0 -646 -1184 -646q-559 0 -913.5 162t-354.5 647q0 146 38.5 237t145.5 268l101 -60q-103 -172 -139 -246t-36 -192q0 -426 318 -563.5t767 -137.5t794.5 108t345.5 425q0 136 -45.5 209.5t-171.5 110.5q49 -93 49 -241t-75 -262.5t-230 -114.5t-231 95.5
t-76 255.5t97 276t259 116q-59 100 -240 100q-180 0 -285.5 -116t-105.5 -291q0 -118 49 -226t153 -116l-3 -73h-1172v105h427q82 0 147 63t65 144t-58 136.5t-138 55.5q-82 0 -142 -57t-60 -123t24 -103l-125 -3q-18 42 -18 91q0 134 96 223t226 89t221.5 -84.5
t91.5 -207.5q0 -160 -91 -224h265q-76 118 -76 303q0 239 148.5 387t341.5 148q277 0 404 -218q396 -42 396 -450zM2191 350q0 161 -59 262q-23 2 -44 2q-124 0 -191 -84t-67 -210q0 -226 171 -226q190 0 190 256z" />
    <glyph glyph-name="ch2r3u1" horiz-adv-x="2598" 
d="M2556.5 -226.5q50.5 -71.5 50.5 -173.5t-80.5 -181.5t-194.5 -79.5t-194 81t-80 194q0 46 14 88q-264 -73 -654 -73q-560 0 -914.5 162t-354.5 647q0 146 42 243t143 262l101 -60q-110 -182 -142.5 -249.5t-32.5 -188.5q0 -426 318 -563.5t766 -137.5q449 0 794.5 108
t345.5 425q0 136 -45.5 209.5t-171.5 111.5q49 -94 49 -242t-75 -262.5t-230 -114.5t-231 95.5t-76 255.5t97.5 276t259.5 116q-59 100 -241 100q-181 0 -285.5 -116t-104.5 -291q0 -115 49 -219.5t152 -111.5v-84h-1175v115h428q81 0 146.5 58.5t65.5 138.5q0 82 -58 137
t-139 55t-141 -57t-60 -123t24 -103l-125 -3q-18 42 -18 92q0 133 96 222.5t226 89.5t221.5 -85t91.5 -221t-92 -201h266q-76 119 -76 293q0 235 144 385t338 150q136 0 244.5 -57.5t167.5 -160.5q396 -42 396 -450q0 -245 -180 -400q84 -30 134.5 -101.5zM2192 350
q0 161 -59 262q-23 2 -45 2q-123 0 -190.5 -84t-67.5 -210q0 -226 172 -226q190 0 190 256zM2494 -386q0 69 -47 116t-115 47q-70 0 -116.5 -46.5t-46.5 -114.5t47.5 -116t115.5 -48t115 46.5t47 115.5z" />
    <glyph glyph-name="ch2r3u2" horiz-adv-x="2598" 
d="M2551 -250q54 -80 54 -192t-88.5 -200t-214.5 -88t-216.5 89.5t-90.5 215.5q0 59 23 113q-249 -59 -600 -59q-560 0 -914.5 162t-354.5 647q0 148 42 243.5t143 261.5l101 -60q-110 -183 -142.5 -250.5t-32.5 -187.5q0 -426 316 -563.5t766 -137.5t796.5 108t346.5 425
q0 138 -46 210.5t-172 109.5q50 -93 50 -241t-75 -262.5t-230 -114.5t-231 95.5t-76 255.5t97 276t259 116q-59 101 -238 101q-170 0 -281.5 -116.5t-111.5 -291.5q0 -118 49 -226t152 -116v-73h-1174v105h427q81 0 146.5 63t65.5 144t-58 136.5t-139 55.5t-141 -56.5
t-60 -122.5t24 -104l-125 -3q-18 42 -18 91q0 133 96 222.5t226 89.5t221.5 -84.5t91.5 -226.5t-91 -205h265q-76 118 -76 303q0 244 149.5 389.5t339.5 145.5q278 0 405 -219q396 -42 396 -450q0 -258 -197 -412q92 -34 146 -112zM2192 350q0 161 -59 262q-23 2 -44 2
q-124 0 -191 -84t-67 -210q0 -226 171 -226q190 0 190 256zM2367.5 -399.5q28.5 28.5 28.5 68.5t-29.5 68.5t-70.5 28.5t-69 -27t-28 -68q0 -42 28 -70.5t70 -28.5t70.5 28.5zM2437.5 -562q56.5 55 56.5 123t-30 115q0 -77 -48 -126.5t-118 -49.5t-117.5 47t-49.5 115
q-23 -40 -23 -103t56.5 -119.5t136.5 -56.5t136.5 55z" />
    <glyph glyph-name="ch3u1" horiz-adv-x="1629" 
d="M1632 203q0 -135 -88.5 -218.5t-223.5 -83.5h-903q-115 0 -115 -69t115 -69h1187v-113l-1208 3q-230 1 -230 175q0 172 230 172h926q84 0 141.5 59.5t57.5 143.5q0 148 -145 192q47 -57 47 -143t-69 -143.5t-170 -57.5q-169 0 -228 157q-103 -162 -422 -162
q-211 0 -289.5 47.5t-78.5 133.5q0 232 492 232l221 -4q406 0 406 203q0 85 -56.5 125.5t-142.5 40.5q-191 0 -191 -173v-143h-141v136q0 89 -60.5 134.5t-199.5 45.5t-175 -36q23 13 51 13q77 0 125 -44.5t48 -122.5t-60.5 -124t-138.5 -46q-197 0 -197 199
q0 145 105.5 212.5t260.5 67.5q216 0 307 -106q75 106 288 106q143 0 227.5 -79t84.5 -218q0 -79 -42 -138q254 -49 254 -305zM1299 267q0 44 -34 75t-81 31t-82.5 -29.5t-35.5 -76.5q0 -103 116 -103t117 103zM438 644q0 48 -26.5 66.5t-67.5 18.5t-67.5 -18t-26.5 -65
q0 -89 94 -89t94 87zM946 352l-271 -3q-74 -1 -224.5 -15.5t-150.5 -100.5q0 -30 34 -51t216 -21q290 0 396 191z" />
    <glyph glyph-name="ch3u2" horiz-adv-x="1672" 
d="M1621 208q54 -35 54 -116t-46.5 -134.5t-117.5 -53.5h-1109q-101 0 -101 -71q0 -72 101 -72h1255v-111h-1274q-212 0 -212 178q0 81 63.5 126.5t148.5 45.5h1123q27 0 46.5 23t19.5 52q0 74 -63 74h-70v106h61q70 0 70 82q0 67 -96 70l-108 3q56 -91 56 -143
q0 -101 -69 -158.5t-170 -57.5q-171 0 -228 157q-103 -162 -422 -162q-196 0 -281.5 43.5t-85.5 137.5q0 232 492 232l220 -4q406 0 406 203q0 85 -56.5 125.5t-142.5 40.5q-191 0 -191 -173v-143h-140v136q0 90 -62 135t-200 45t-174 -36q23 13 52 13q77 0 125 -44.5
t48 -122.5t-61 -124t-139 -46q-196 0 -196 199q0 133 98 206.5t268 73.5q216 0 307 -106q74 106 288 106q143 0 227.5 -79t84.5 -218q0 -72 -40 -133h94q100 0 150.5 -45.5t50.5 -112.5q0 -114 -54 -147zM1299 267q0 44 -34.5 75t-81.5 31q-46 0 -81.5 -29.5t-35.5 -76.5
q0 -103 116 -103t117 103zM437 644q0 44 -23.5 64.5t-69.5 20.5q-44 0 -69 -19.5t-25 -63.5q0 -89 93 -89q94 0 94 87zM946 349h-271q-61 0 -218.5 -15t-157.5 -101q0 -32 36.5 -52t214.5 -20q292 0 396 188z" />
    <glyph glyph-name="ch3r1" horiz-adv-x="1682" 
d="M501 943q251 0 313 -131q51 131 283 131q150 0 231 -85.5t81 -219.5t-54 -190q332 -30 332 -440q0 -143 -113 -290.5t-341 -147.5q-134 0 -248 57t-114 147t97.5 126t194.5 36q96 0 203.5 -40t125.5 -102q77 84 77 216q0 251 -185 307q28 -47 28 -101q0 -93 -70 -156.5
t-156 -63.5t-150.5 43t-85.5 114q-124 -174 -424 -174q-363 0 -363 195q0 218 374 218h408q125 0 229.5 63.5t104.5 180.5q0 188 -198 188t-198 -195v-176h-135v169q0 202 -246 202q-165 0 -199 -59q28 19 61 19q79 0 125 -50.5t46 -131.5t-57 -139.5t-140 -58.5
q-195 0 -195 230q0 153 101 231t257 78zM1293 216q0 104 -118 104q-117 0 -117 -104q0 -46 35.5 -78t81.5 -32q47 0 82.5 32t35.5 78zM1206 -317q166 0 166 58q0 36 -75.5 60t-148.5 24q-137 0 -137 -61q0 -36 67.5 -58.5t127.5 -22.5zM434 612q0 53 -28.5 71t-67.5 18
q-42 0 -69 -19t-27 -67q0 -106 96 -106t96 103zM941 291h-469q-181 0 -181 -111q0 -41 43 -68.5t210 -27.5q294 0 397 207z" />
    <glyph glyph-name="ch3r2" horiz-adv-x="1682" 
d="M1689 51q0 -231 -173.5 -357.5t-415.5 -126.5q-422 0 -422 214q0 81 73 127.5t161 46.5q155 0 212 -94q42 96 174 96t192 -124q81 82 81 193t-49 187.5t-138 102.5q28 -47 28 -101q0 -96 -70.5 -158t-166.5 -62q-171 0 -225 157q-127 -176 -424 -176q-364 0 -364 197
q0 214 411 218l372 4q333 4 333 240q0 188 -198 188t-198 -195v-176h-134v169q0 203 -246 203q-163 0 -199 -60q27 19 61 19q79 0 124.5 -49.5t45.5 -131.5t-57 -140.5t-139 -58.5q-195 0 -195 230q0 159 100 234.5t264 75.5q241 0 307 -132q52 132 288 132q144 0 225.5 -86
t81.5 -220t-54 -190q153 -16 243.5 -127.5t90.5 -268.5zM1293 215q0 104 -118 104q-117 0 -117 -104q0 -46 35 -78t82 -32t82.5 32t35.5 78zM434 611q0 47 -24.5 68t-71.5 21t-71.5 -20.5t-24.5 -66.5q0 -105 96 -105t96 103zM1398 -247q-12 92 -105 92q-45 0 -76.5 -29.5
t-31.5 -71.5v-28h-113v40q-2 42 -48 65.5t-92 23.5q-120 0 -120 -66q0 -104 270 -104q194 0 316 78zM941 290l-359 -3q-291 -2 -291 -108q0 -46 94 -71t159 -25q294 0 397 207z" />
    <glyph glyph-name="ch3ch3" horiz-adv-x="2753" 
d="M2654 397q106 -71 106 -177t-69 -173.5t-156 -67.5t-153.5 40.5t-83.5 110.5q-131 -151 -422 -151q-220 0 -292 50.5t-72 147.5q0 225 410 225h369q134 0 233.5 52.5t99.5 172.5q0 91 -54 144t-145 53q-193 0 -193 -182v-198h-136v188q0 192 -248 192q-161 0 -197 -59
q35 19 63 19q78 0 123.5 -54t45.5 -136t-56.5 -137t-150.5 -55t-142 68q-150 -496 -933 -496q-262 0 -350.5 47.5t-88.5 153.5q0 227 410 227h372q134 0 234 53t100 172q0 91 -54 144t-145 53q-197 0 -197 -182v-198h-134v188q0 192 -246 192q-163 0 -200 -59q38 19 62 19
q79 0 124.5 -54t45.5 -136t-57 -137t-140 -55q-194 0 -194 223q0 155 102 236.5t257 81.5q212 0 312 -126q74 126 285 126q148 0 229 -90t81 -238q0 -176 -139.5 -250t-328.5 -74h-273q-378 0 -378 -111q0 -36 44 -64.5t278 -28.5q393 0 611 106.5t266 440.5
q24 170 110.5 239.5t251.5 69.5q220 0 309 -126q76 126 285 126q149 0 231 -90t82 -233t-104 -223zM2642 212q0 106 -119 106t-119 -106q0 -52 34 -83.5t84 -31.5t85 33t35 82zM1590 606q0 -101 95 -101t95 95q0 60 -28 82t-66 22q-42 0 -69 -28t-27 -70zM1637 183
q0 -86 253 -86q305 0 401 194h-276q-378 0 -378 -108zM433 603q0 42 -27.5 71.5t-68.5 29.5q-42 0 -69 -28t-27 -70q0 -101 96 -101t96 98z" />
    </font>
</defs>
</svg>
