<?xml version="1.0" standalone="no"?>
<!DOCTYPE svg PUBLIC "-//W3C//DTD SVG 1.1//EN" "http://www.w3.org/Graphics/SVG/1.1/DTD/svg11.dtd" >
<svg xmlns="http://www.w3.org/2000/svg">
<metadata></metadata>
<defs>
<font id="anjalioldlipiregular" horiz-adv-x="1139" >
<font-face units-per-em="2048" ascent="1638" descent="-410" />
<missing-glyph horiz-adv-x="599" />
<glyph horiz-adv-x="2048" />
<glyph horiz-adv-x="2048" />
<glyph unicode="&#xd;" horiz-adv-x="599" />
<glyph unicode=" "  horiz-adv-x="599" />
<glyph unicode="&#x09;" horiz-adv-x="599" />
<glyph unicode="&#xa0;" horiz-adv-x="599" />
<glyph unicode="!" horiz-adv-x="568" d="M198 0v205h204v-205h-204zM232 365v1100h138v-1100h-138z" />
<glyph unicode="&#x22;" horiz-adv-x="727" d="M114 938v527h137v-527h-137zM469 938v527h137v-527h-137z" />
<glyph unicode="#" d="M22 411v138h205l75 372h-197v138h225l85 420l136 -28l-79 -392h328l85 420l136 -28l-79 -392h174v-138h-202l-75 -372h194v-138h-222l-86 -425l-136 28l80 397h-328l-86 -425l-136 28l80 397h-177zM369 549h328l75 372h-328z" />
<glyph unicode="$" d="M93 408h138q0 -65 24 -114t61.5 -83.5t84.5 -55.5t92 -30v586q-69 23 -132 51.5t-112 71.5t-78 104.5t-29 150.5q0 68 16.5 120.5t44 92t64 67.5t75.5 47t78 29.5t73 15.5v176h138v-173q34 -3 74 -11t79.5 -23.5t77 -39.5t66 -60t45.5 -85t17 -114h-138q0 53 -21.5 88 t-54.5 57t-72 33t-73 16v-512q75 -24 146 -52.5t126 -73.5t88.5 -112t33.5 -167q0 -79 -18 -139.5t-48 -106.5t-70 -77.5t-83.5 -52.5t-88.5 -32.5t-86 -15.5v-167h-138v169q-66 10 -137 39t-129.5 80t-96 126t-37.5 177zM280 1089q0 -48 16.5 -84t45.5 -63t68 -47.5 t83 -36.5v463q-34 -7 -71.5 -22t-69 -42t-52 -68t-20.5 -100zM631 123q42 6 87 23t82.5 50t62 84.5t24.5 127.5q0 55 -21 95.5t-56.5 71t-82 52t-96.5 39.5v-543z" />
<glyph unicode="%" horiz-adv-x="1820" d="M145 1100q0 81 24 152t66 124t98 83.5t120 30.5t120 -30.5t98 -83.5t66 -124t24 -152t-24 -152t-66 -124t-98 -83.5t-120 -30.5t-120 30.5t-98 83.5t-66 124t-24 152zM283 1100q0 -52 13.5 -98t36.5 -80t54 -54t66 -20t66 20t54 54t36.5 80t13.5 98t-13.5 98t-36.5 80 t-54 54t-66 20t-66 -20t-54 -54t-36.5 -80t-13.5 -98zM452 26l787 1462l122 -66l-787 -1462zM1055 370q0 81 24 152t66 124t98 83.5t120 30.5t120 -30.5t98 -83.5t66 -124t24 -152t-24 -152t-66 -124t-98 -83.5t-120 -30.5t-120 30.5t-98 83.5t-66 124t-24 152zM1193 370 q0 -52 13.5 -98t36.5 -80t54 -54t66 -20t66 20t54 54t36.5 80t13.5 98t-13.5 98t-36.5 80t-54 54t-66 20t-66 -20t-54 -54t-36.5 -80t-13.5 -98z" />
<glyph unicode="&#x26;" horiz-adv-x="1365" d="M118 408q0 80 29 143.5t77 115t110 94t128 81.5q-75 94 -115.5 175t-40.5 158q0 62 21.5 119t62 100.5t99 69.5t132.5 26q67 0 127.5 -17t106.5 -53.5t73.5 -94t27.5 -138.5q0 -69 -23 -124.5t-62 -101.5t-90.5 -84.5t-109.5 -73.5q82 -102 167 -207.5t161 -201.5 q29 60 45 131.5t16 157.5h138q0 -125 -28 -226t-76 -182q35 -44 63 -79.5t49 -61.5q24 -30 44 -54l-108 -86l-135 170q-89 -91 -202.5 -135t-233.5 -44q-109 0 -193.5 30.5t-142 86t-87.5 133.5t-30 173zM256 408q0 -64 21 -116.5t61 -90t98.5 -58t134.5 -20.5 q96 0 187 37.5t161 114.5q-42 52 -87.5 108.5t-92.5 115.5t-95 118t-94 116q-57 -33 -110 -67t-94 -73t-65.5 -84.5t-24.5 -100.5zM444 1175q0 -49 36 -114.5t94 -137.5q6 -8 9 -11q46 28 89 58.5t75 64t51.5 71.5t19.5 81q0 44 -16 75.5t-43.5 51.5t-63 29t-74.5 9 q-42 0 -74.5 -14.5t-55.5 -39t-35 -56.5t-12 -67z" />
<glyph unicode="'" horiz-adv-x="390" d="M129 938v527h137v-527h-137z" />
<glyph unicode="(" horiz-adv-x="682" d="M149 548q0 97 14 191.5t37 181.5t52.5 166t60.5 147q72 158 165 296l112 -80q-85 -126 -152 -272q-29 -62 -56 -135t-48 -153t-34 -166.5t-13 -175.5q0 -90 13 -178t34.5 -170.5t48.5 -158.5t56 -142q67 -154 153 -291l-116 -76q-92 147 -164 313q-31 71 -60 153t-52 172 t-37 185t-14 193z" />
<glyph unicode=")" horiz-adv-x="682" d="M148 -392q85 137 152 291q28 66 55.5 142t49.5 158.5t35 170.5t13 178q0 89 -13 175.5t-34.5 166.5t-49 153t-55.5 135q-67 146 -151 272l112 80q92 -138 164 -296q31 -68 60.5 -147t52.5 -166t37.5 -181.5t14.5 -191.5q0 -98 -14 -193t-37 -185t-52.5 -172t-60.5 -153 q-72 -166 -163 -313z" />
<glyph unicode="*" horiz-adv-x="797" d="M69 1202l38 132l223 -66v222h138v-221l217 62l36 -132l-210 -60q34 -49 67 -97t68 -97l-114 -78l-133 192l-136 -194l-112 80l143 194z" />
<glyph unicode="+" horiz-adv-x="1195" d="M113 656v138h416v414h138v-414h417v-138h-417v-418h-138v418h-416z" />
<glyph unicode="," horiz-adv-x="568" d="M146 -240l101 134l-22 106h-56v205h216v-360l-220 -210z" />
<glyph unicode="-" horiz-adv-x="682" d="M65 464v138h551v-138h-551z" />
<glyph unicode="." horiz-adv-x="568" d="M183 0v205h204v-205h-204z" />
<glyph unicode="/" horiz-adv-x="568" d="M8 19l424 1465l132 -38l-424 -1465z" />
<glyph unicode="0" d="M118 772q0 166 28 299t84.5 226t142.5 143t202 50q119 0 202.5 -50t136.5 -143t77 -226t24 -299q0 -164 -24 -309t-77 -253.5t-136.5 -171.5t-201.5 -63q-119 0 -205 63t-142.5 171.5t-83.5 253.5t-27 309zM256 772q0 -136 19 -256t58.5 -209.5t99.5 -141.5t143 -52 q81 0 138 52t93.5 141.5t53 209.5t16.5 256q0 134 -16.5 241.5t-53 182.5t-94 115.5t-138.5 40.5t-141 -40.5t-99.5 -115.5t-59 -182.5t-19.5 -241.5z" />
<glyph unicode="1" d="M322 1161l274 330h131v-1483h-138v1259l-161 -194z" />
<glyph unicode="2" d="M112 -1q0 91 30.5 169.5t81 147.5t116 130.5t136.5 118.5h-1q72 58 143 118.5t127.5 124.5t91.5 130.5t35 137.5q0 67 -24 118.5t-64.5 86.5t-95 53t-114.5 18q-50 0 -104 -18t-99 -54t-74.5 -90.5t-29.5 -126.5h-138q0 73 19.5 133t53 107t77.5 82.5t93.5 58.5 t101.5 34.5t100 11.5q88 0 167 -26.5t139 -78.5t95 -129.5t35 -179.5q0 -96 -39.5 -180t-103.5 -159.5t-144 -144.5t-161 -135q-48 -39 -94 -81t-81.5 -84t-57.5 -81.5t-22 -72.5h728v-138q-205 -1 -385 -1h-538z" />
<glyph unicode="3" d="M114 379h138q0 -48 24 -95.5t66.5 -85.5t100.5 -61.5t126 -23.5q56 0 113 22t102.5 63.5t74 100t28.5 130.5q0 66 -27 120.5t-79.5 93t-130 59.5t-179.5 21v138q98 0 162 21t101.5 56.5t52.5 83.5t15 102q0 52 -21.5 94t-58 72t-85.5 46t-103 16q-22 0 -50 -6.5t-57 -20 t-57 -33t-49.5 -46.5t-34.5 -61t-13 -75h-138q0 65 20 118t53.5 95t75.5 73.5t86.5 52.5t87 31t76.5 10q82 0 156 -25.5t129.5 -73t88 -115.5t32.5 -152q0 -50 -7.5 -97t-24.5 -89t-45 -77.5t-70 -62.5q115 -54 173.5 -149t58.5 -220q0 -105 -41 -189t-106 -143 t-146.5 -90.5t-162.5 -31.5q-98 0 -181.5 35.5t-144.5 93t-95 129.5t-34 146z" />
<glyph unicode="4" d="M32 374v129l647 963h149v-1466h-138v1236q-61 -91 -119 -177.5t-116.5 -174.5t-120 -179.5t-129.5 -192.5h839v-138h-1012z" />
<glyph unicode="5" d="M93 372h138q0 -22 7.5 -49.5t24 -56.5t42.5 -56.5t62 -49t82.5 -34.5t105.5 -13q78 0 143.5 30t112.5 82.5t73 123t26 150.5q0 66 -20.5 124t-64 100.5t-110.5 67.5t-160 25q-43 0 -79 -7.5t-65 -20t-52.5 -28t-41.5 -31.5q-42 -38 -67 -86l-125 33l66 790h733v-138h-605 l-37 -448q48 29 117 51.5t156 22.5q132 0 226 -35.5t153 -97t86.5 -144.5t27.5 -178q0 -108 -35.5 -203.5t-100 -166.5t-155.5 -112.5t-202 -41.5q-83 0 -150 20t-118.5 52.5t-88 74t-60 85.5t-34.5 87t-11 78z" />
<glyph unicode="6" d="M114 697q0 105 12 204.5t37.5 187.5t65.5 162t96 127t129 82.5t164 29.5q76 0 145.5 -23t122.5 -69.5t85 -115.5t32 -162h-138q0 57 -20.5 100.5t-54.5 73t-78.5 44t-93.5 14.5q-90 0 -156 -45t-110 -122t-68 -179.5t-30 -216.5q34 34 74.5 63.5t84 51t90.5 33.5t95 12 q75 0 151.5 -29.5t138.5 -89.5t101 -151t39 -214q0 -90 -25 -178t-77 -157.5t-132.5 -112t-191.5 -42.5q-112 0 -202.5 44.5t-154 134.5t-97.5 225.5t-34 317.5zM257 569q10 -115 38.5 -200.5t73 -142.5t103.5 -85t130 -28q75 0 129.5 30.5t90 80.5t52 113t16.5 128 q0 88 -26.5 153t-68.5 108t-94 64t-103 21q-56 0 -109.5 -21.5t-99 -56t-80 -78t-52.5 -86.5z" />
<glyph unicode="7" d="M98 1328v138h949v-138l-546 -1352l-126 54l523 1298h-800z" />
<glyph unicode="8" d="M108 370q0 73 27 130.5t72.5 104t105.5 84t125 72.5q-58 30 -109 63.5t-89.5 76.5t-60.5 97t-22 125q0 66 24 132t74.5 118t129 84.5t187.5 32.5q75 0 134.5 -17t105.5 -45.5t78 -65.5t53 -78t30.5 -82.5t9.5 -78.5q0 -62 -19 -113t-51.5 -93.5t-76.5 -79t-94 -67.5 q60 -32 114 -69.5t95 -85.5t65 -108t24 -137q0 -69 -31 -139.5t-90.5 -127.5t-147 -92.5t-199.5 -35.5q-56 0 -112 9t-107.5 29t-96 51t-77.5 75t-52 101.5t-19 129.5zM246 370q0 -70 29 -119t75.5 -79.5t104.5 -44.5t117 -14q79 0 140.5 23.5t103.5 60.5t64 82.5t22 90.5 q0 61 -26 108t-69 84.5t-98.5 68t-114.5 57.5l-23 -12q-60 -30 -118 -62.5t-104 -69.5t-74.5 -80t-28.5 -94zM295 1123q0 -48 26.5 -88.5t68.5 -75t95 -64t107 -54.5q51 28 97 57.5t80.5 63.5t55 73.5t20.5 87.5q0 34 -14.5 74.5t-47 74.5t-84.5 57t-127 23 q-73 0 -125.5 -20t-86 -52.5t-49.5 -73.5t-16 -83z" />
<glyph unicode="9" d="M113 993q0 50 7.5 106.5t26.5 112t50.5 106t79.5 88.5t113 61t152 23q84 0 153.5 -27.5t124.5 -76t95.5 -114.5t67.5 -143.5t40 -163t13 -171.5q0 -80 -8 -172t-28.5 -183t-56.5 -175t-92.5 -148t-135.5 -102.5t-186 -38.5q-62 0 -129.5 22.5t-124.5 67.5t-94 112.5 t-37 156.5h138q0 -54 23.5 -95.5t60 -69t80 -42t83.5 -14.5q68 0 120 24.5t91.5 67t67 98.5t45.5 119.5t28 131t14 131.5q-32 -30 -71.5 -58.5t-85 -51t-97 -36.5t-107.5 -14q-64 0 -120.5 20.5t-103 55.5t-83.5 81.5t-62 98.5t-38.5 106.5t-13.5 105.5zM251 993 q0 -54 20 -112.5t56.5 -106.5t89 -79.5t117.5 -31.5q67 0 125.5 27t105 64t79 75.5t49.5 61.5q-9 91 -35 174.5t-69.5 147t-105 101.5t-141.5 38q-58 0 -102.5 -16.5t-77 -44t-54 -64t-34 -76.5t-18 -81t-5.5 -77z" />
<glyph unicode=":" horiz-adv-x="568" d="M183 0v205h204v-205h-204zM183 855v207h204v-207h-204z" />
<glyph unicode=";" horiz-adv-x="568" d="M183 0h64v-107l-52 -57l19 -155l171 164v360h-202v-205zM183 855v207h204v-207h-204z" />
<glyph unicode="&#x3c;" horiz-adv-x="1195" d="M113 648v150l944 400l54 -128l-819 -346l818 -336l-52 -128z" />
<glyph unicode="=" horiz-adv-x="1195" d="M113 430v138h972v-138h-972zM113 876v138h972v-138h-972z" />
<glyph unicode="&#x3e;" horiz-adv-x="1195" d="M86 1070l54 128l944 -400v-150l-945 -388l-52 128l818 336z" />
<glyph unicode="?" d="M128 1061q0 108 32 188.5t88.5 134t133 80t166.5 26.5q99 0 172.5 -20t126 -53.5t85.5 -76.5t52.5 -88.5t26.5 -89.5t7 -80q0 -60 -19.5 -111t-51.5 -96t-72 -85.5t-82 -79.5q-32 -30 -62.5 -59.5t-54 -60t-38 -62t-14.5 -64.5v-104h-138v104q0 51 19.5 98t50 90.5 t68.5 83t75 74.5q33 31 65.5 63t58 66t41.5 69.5t16 73.5q0 23 -5 52.5t-18.5 59.5t-37 58.5t-60.5 50.5t-89 35.5t-122 13.5q-60 0 -112 -18.5t-89.5 -55t-59 -91t-21.5 -126.5h-138zM486 0v204h162v-204h-162z" />
<glyph unicode="@" horiz-adv-x="2079" d="M121 478q0 170 40.5 311t111.5 253.5t166.5 196.5t205.5 140t229 83.5t236 27.5q119 0 228 -23t203.5 -67.5t171.5 -110t131.5 -150.5t84.5 -189t30 -226t-29 -225t-76.5 -186t-108 -146.5t-123 -106t-121.5 -64t-103 -21.5q-48 0 -86 9t-65.5 30t-43.5 54.5t-20 83.5 q-29 -28 -63.5 -59t-74.5 -57.5t-85.5 -43.5t-95.5 -17q-59 0 -121 25.5t-113 80t-83.5 139t-32.5 202.5q0 73 18 149.5t51 149t80 136.5t104.5 112.5t125 76.5t140.5 28q55 0 101 -10.5t84 -28t68.5 -40t54.5 -46.5l25 113l134 -30q-20 -91 -46 -206q-22 -99 -53 -235.5 t-69 -304.5q-7 -28 -9.5 -56.5t-2.5 -47.5q0 -39 20.5 -54t57.5 -15q33 0 77.5 18t91.5 52.5t92.5 86.5t81.5 119.5t58 151.5t22 183q0 149 -55.5 265.5t-151.5 197t-225.5 123t-278.5 42.5q-101 0 -203 -24t-196.5 -72.5t-177 -121t-143.5 -169.5t-96 -218.5t-35 -268.5 q0 -146 38.5 -260t104 -201t152 -148t182 -99t194 -55.5t187.5 -17.5q114 0 193.5 10.5t130.5 23.5q59 15 96 35l102 -94q-50 -32 -125 -57q-64 -21 -162 -38.5t-235 -17.5q-104 0 -218 20.5t-225 65.5t-211 117t-176 174t-121 236.5t-45 305.5zM652 422q0 -77 19.5 -135 t50.5 -96.5t68.5 -58t73.5 -19.5q43 0 85 16.5t80 43t71 60.5t58.5 68.5t42.5 67.5t22 58q23 100 42.5 186.5t35.5 158.5q-6 13 -23.5 40.5t-49.5 55t-80 48t-115 20.5q-54 0 -103 -22t-91.5 -60t-77 -89t-59 -108t-37.5 -117.5t-13 -117.5z" />
<glyph unicode="A" horiz-adv-x="1365" d="M29 0l572 1466h134l609 -1466h-150l-184 444h-660l-174 -444h-147zM404 582h548l-282 681q-67 -173 -133.5 -341.5t-132.5 -339.5z" />
<glyph unicode="B" horiz-adv-x="1365" d="M198 -1v1467h554q87 0 165 -26t136 -75t92 -118.5t34 -156.5q0 -49 -13.5 -93.5t-37 -84t-55.5 -73t-68 -60.5q57 -27 102 -66t77 -86.5t49 -102.5t17 -114q0 -69 -22.5 -126.5t-60.5 -103t-87.5 -79.5t-104 -56.5t-110 -33.5t-105.5 -11h-73.5t-87 -0.5t-92.5 -0.5h-92 h-217zM336 138h424q54 0 115.5 16.5t114 50.5t87.5 85t35 120q0 58 -25.5 109.5t-71 90t-108.5 61t-139 22.5h-432v-555zM336 831h432q43 0 91 19.5t88.5 54t67 82t26.5 103.5q0 55 -23 99t-62.5 75t-92 47.5t-111.5 16.5h-416v-497z" />
<glyph unicode="C" horiz-adv-x="1479" d="M119 735q0 146 32 258.5t84.5 196.5t121 141.5t142 92.5t146.5 50.5t135 15.5q75 0 143.5 -17.5t128 -49t109 -75t87.5 -94.5t63 -108t35 -116l-136 -24q-12 66 -48.5 128.5t-92.5 110.5t-129.5 77.5t-159.5 29.5q-49 0 -106.5 -12.5t-115.5 -41.5t-112.5 -76 t-96.5 -115.5t-67 -160.5t-25 -211t24.5 -211.5t65.5 -161.5t94.5 -116.5t111.5 -77t116.5 -42.5t110.5 -13q91 0 165 31t128.5 81t88 114.5t43.5 132.5l136 -20q-14 -91 -58 -177t-116 -152.5t-169.5 -107t-217.5 -40.5q-65 0 -139 15.5t-147.5 51.5t-141.5 94 t-119.5 142.5t-82.5 197.5t-31 259z" />
<glyph unicode="D" horiz-adv-x="1479" d="M219 0v1466h466q139 0 261.5 -49t213 -141.5t143 -226.5t52.5 -304q0 -162 -33.5 -280t-88.5 -200.5t-125.5 -134.5t-145 -80.5t-147 -39t-130.5 -10.5h-466zM357 138h328q46 0 103.5 8.5t116.5 32t115 65.5t100 109.5t70.5 163.5t26.5 228q0 138 -41.5 246t-113.5 183 t-169 114.5t-208 39.5h-328v-1190z" />
<glyph unicode="E" horiz-adv-x="1365" d="M172 0v1465h1052v-138h-914v-499h856v-138h-856v-551h947v-139h-1085z" />
<glyph unicode="F" horiz-adv-x="1251" d="M172 0v1465h982v-138h-844v-499h736v-138h-736v-690h-138z" />
<glyph unicode="G" horiz-adv-x="1593" d="M121 734q0 149 37 263.5t97 198.5t135 140.5t150.5 90.5t144.5 48.5t116 14.5q48 0 111.5 -11t130.5 -35t131.5 -61t115.5 -89t82.5 -119.5t31.5 -152.5h-138q0 60 -24 107.5t-63.5 84t-89.5 63t-101.5 43t-100.5 24.5t-86 8q-38 0 -92.5 -12t-115 -40t-120 -74 t-107.5 -115t-77.5 -162t-29.5 -215t27.5 -215.5t73.5 -162.5t104.5 -115.5t120 -75t121.5 -40.5t109 -12q48 0 102.5 11t108.5 31.5t103.5 49.5t88 64.5t61 77.5t22.5 88v164h-414v138h552v-302q0 -66 -29 -126t-78 -111t-113 -92.5t-133.5 -70.5t-139.5 -44.5t-131 -15.5 q-60 0 -135 15t-152.5 49.5t-150.5 91.5t-130 141t-91.5 198.5t-34.5 263.5z" />
<glyph unicode="H" horiz-adv-x="1479" d="M195 0v1465h138v-623h812v623h138v-1465h-138v704h-812v-704h-138z" />
<glyph unicode="I" horiz-adv-x="568" d="M214 0v1465h138v-1465h-138z" />
<glyph unicode="J" horiz-adv-x="1024" d="M79 414h138q0 -51 10.5 -104t37 -97t71.5 -72t114 -28q70 0 118.5 28t78.5 69.5t43.5 90t13.5 90.5v1074h138v-1074q0 -63 -20.5 -135.5t-67 -135t-121.5 -104t-183 -41.5q-73 0 -129 18.5t-97 51t-69 75.5t-45 92t-24 100.5t-7 101.5z" />
<glyph unicode="K" horiz-adv-x="1365" d="M195 0v1458h138v-779l787 810l98 -96l-526 -540l586 -795l-112 -82l-572 776l-261 -269v-483h-138z" />
<glyph unicode="L" d="M190 0v1465h138v-1327h744v-138h-882z" />
<glyph unicode="M" horiz-adv-x="1704" d="M181 0v1465h238l436 -1255q106 317 211.5 628.5t211.5 627.5h241v-1466h-138v1344l-451 -1345h-148l-463 1333v-1332h-138z" />
<glyph unicode="N" horiz-adv-x="1479" d="M177 0v1466h149l842 -1241v1236h138v-1461h-153l-838 1236v-1236h-138z" />
<glyph unicode="O" horiz-adv-x="1593" d="M123 737q0 151 45 287.5t132 240t214.5 164.5t292.5 61q110 0 202.5 -28t166 -79t129 -121t93 -153.5t56 -178t18.5 -193.5q0 -161 -48.5 -300t-136.5 -241.5t-210.5 -161.5t-269.5 -59q-111 0 -205 30.5t-170 84.5t-133.5 126.5t-96.5 157.5t-59 177.5t-20 185.5z M261 737q0 -76 16 -152t47 -145t77 -129t107 -104t135.5 -69t163.5 -25q117 0 213.5 48.5t166.5 132.5t108.5 198t38.5 245q0 81 -15 158.5t-44.5 145.5t-73.5 125.5t-102.5 98.5t-131.5 64t-160 23q-132 0 -233.5 -50t-171 -134.5t-105.5 -196t-36 -234.5z" />
<glyph unicode="P" horiz-adv-x="1365" d="M180 -5v1470h613q110 0 196 -33.5t145.5 -92.5t90.5 -139t31 -172t-30.5 -171.5t-89.5 -138t-145.5 -92t-197.5 -33.5h-475v-598h-138zM318 731h475q78 0 139 23t102 62.5t62.5 94t21.5 117.5q0 62 -22 116.5t-63.5 95t-102 64t-137.5 23.5h-475v-596z" />
<glyph unicode="Q" horiz-adv-x="1593" d="M123 737q0 151 45 287.5t132 240t214.5 164.5t292.5 61q110 0 202.5 -28t166 -79t129 -121t93 -153.5t56 -178t18.5 -193.5q0 -165 -50.5 -305.5t-141.5 -244.5l230 -179l-84 -108l-249 194q-78 -57 -171 -88t-199 -31q-111 0 -205 30.5t-170 84.5t-133.5 126.5 t-96.5 157.5t-59 177.5t-20 185.5zM261 737q0 -76 16 -152t47 -145t77 -129t107 -104t135.5 -69t163.5 -25q72 0 135 18t119 53l-174 136l84 108l198 -155q78 86 121.5 205t43.5 259q0 81 -15 158.5t-44.5 145.5t-73.5 125.5t-102.5 98.5t-131.5 64t-160 23 q-132 0 -233.5 -50t-171 -134.5t-105.5 -196t-36 -234.5z" />
<glyph unicode="R" horiz-adv-x="1479" d="M180 -5v1470h613q110 0 196 -30.5t145.5 -85.5t90.5 -132t31 -169q0 -136 -64 -231.5t-187 -140.5q58 -42 99 -90t71 -101t52.5 -110t44.5 -117q20 -57 39.5 -109t49.5 -108l-122 -66q-31 57 -54 117.5t-43 119.5q-22 64 -49.5 127t-69 119t-101.5 103.5t-146 81.5h-458 v-648h-138zM318 781h475q158 0 241.5 70t83.5 197q0 62 -22 113.5t-63.5 88t-102 57t-137.5 20.5h-475v-546z" />
<glyph unicode="S" horiz-adv-x="1365" d="M117 473h138q0 -77 37.5 -143t101 -114t146.5 -75.5t174 -27.5q37 0 80 7t86.5 21.5t83.5 38t71.5 56.5t50 76t18.5 97q0 69 -36.5 114.5t-96.5 77t-136 53t-155 40.5q-65 15 -128 31.5t-120 37.5t-105.5 49t-84 67t-55.5 91t-20 121q0 80 36 152.5t102 127t158 87 t205 32.5q111 0 209 -30t171 -87t115.5 -139.5t42.5 -187.5h-138q0 72 -31.5 129t-85.5 96.5t-127 60t-156 20.5q-82 0 -149 -21t-114.5 -57t-73.5 -83.5t-26 -99.5q0 -61 35.5 -102.5t93.5 -71t130.5 -50.5t147.5 -39q64 -16 128 -33t123 -40t110 -53t88.5 -71.5t59 -96 t21.5 -125.5q0 -80 -25.5 -143t-67.5 -111.5t-96.5 -82.5t-113 -55.5t-117 -31.5t-108.5 -10q-79 0 -153.5 17t-141 49t-122 76.5t-95.5 100t-62.5 120t-22.5 135.5z" />
<glyph unicode="T" horiz-adv-x="1251" d="M44 1327v138h1166v-138h-516v-1328h-138v1328h-512z" />
<glyph unicode="U" horiz-adv-x="1479" d="M167 509v956h138v-956q0 -41 9 -86t29.5 -89t54 -84t82.5 -70.5t114.5 -48.5t151.5 -18q85 0 149.5 18t112 48.5t79 70.5t50.5 84t27 89t8 86v956h138v-956q0 -55 -10.5 -115.5t-35.5 -120t-67 -113.5t-104.5 -95t-148.5 -65.5t-198 -24.5t-198.5 24.5t-151 65.5t-108 95 t-70.5 113.5t-39 120t-12 115.5z" />
<glyph unicode="V" horiz-adv-x="1365" d="M48 1440l128 50l515 -1305l498 1306l128 -50l-551 -1441h-151z" />
<glyph unicode="W" horiz-adv-x="1933" d="M55 1454l134 36l333 -1237q41 141 85 293.5t88.5 308.5t89 310.5t86.5 300.5h202l349 -1208q81 306 164 616t164 616l134 -36l-388 -1454h-143l-381 1319q-44 -153 -92.5 -320t-97.5 -337.5t-97.5 -338.5t-93.5 -323h-145z" />
<glyph unicode="X" horiz-adv-x="1365" d="M71 57l526 724l-455 627l112 82l429 -590l429 590l112 -82l-455 -627l526 -724l-112 -82l-500 688l-500 -688z" />
<glyph unicode="Y" horiz-adv-x="1365" d="M82 1415l116 76l484 -735l486 734l116 -76l-533 -806v-608h-138v609z" />
<glyph unicode="Z" horiz-adv-x="1251" d="M36 0v174l990 1153h-905v138h1049v-181l-984 -1146h1010v-138h-1160z" />
<glyph unicode="[" horiz-adv-x="568" d="M140 -408v1873h396v-138h-258v-1597h258v-138h-396z" />
<glyph unicode="\" horiz-adv-x="568" d="M8 1446l132 38l424 -1465l-132 -38z" />
<glyph unicode="]" horiz-adv-x="568" d="M34 -270h258v1597h-258v138h396v-1873h-396v138z" />
<glyph unicode="^" horiz-adv-x="962" d="M104 880l297 586h154l304 -585l-122 -64l-258 497l-251 -496z" />
<glyph unicode="_" horiz-adv-x="1130" d="M-13 -204h1156v-138h-1156v138z" />
<glyph unicode="`" horiz-adv-x="682" d="M104 1490h197l159 -281h-166z" />
<glyph unicode="a" d="M105 290q0 84 30.5 144t79 100.5t108.5 64.5t119.5 36.5t111.5 16.5t84 4h201v81q0 42 -18 79t-52.5 65t-85.5 44.5t-117 16.5q-67 0 -121.5 -15t-93.5 -40.5t-60 -59t-21 -69.5h-138q0 63 31 121.5t88 103t137 71t178 26.5q99 0 175.5 -27.5t129 -74.5t79.5 -109.5 t27 -131.5v-737h-138v124q-38 -31 -79.5 -58t-86 -47.5t-92 -32t-96.5 -11.5q-37 0 -79.5 2.5t-84.5 13t-81 30.5t-69 55t-48 87.5t-18 126.5zM243 290q0 -63 24.5 -98.5t61.5 -53t79 -21.5t77 -4q48 0 95 17t92 44.5t87 63t80 71.5v209h-201q-24 0 -62.5 -2.5t-82.5 -10 t-88.5 -22.5t-80.5 -40.5t-58.5 -63t-22.5 -89.5z" />
<glyph unicode="b" d="M163 0v1461h138v-546q29 32 64 62t75.5 53t86 36.5t96.5 13.5q76 0 137.5 -23t109.5 -62.5t83 -92t57.5 -111.5t33 -121t10.5 -120q0 -73 -13 -144t-39 -135t-64 -118t-88 -93.5t-111 -62t-133 -22.5q-48 0 -91 9.5t-81 26t-71.5 38t-61.5 44.5v-93h-138zM301 291 q17 -23 45.5 -53.5t67.5 -58.5t87 -47t105 -19q75 0 133 37t97 98t59.5 140t20.5 162q0 43 -7.5 89t-22.5 89.5t-38.5 82.5t-56.5 68t-74.5 46t-93.5 17q-40 0 -76.5 -13.5t-68.5 -35.5t-59 -50.5t-49.5 -57.5t-40 -56.5t-28.5 -48.5v-389z" />
<glyph unicode="c" horiz-adv-x="1024" d="M88 536q0 134 46 235.5t116.5 170t154 103.5t159.5 35q80 0 155.5 -21t133.5 -63t93 -106t35 -150h-138q0 51 -23.5 89t-62 63t-89 37.5t-104.5 12.5t-113.5 -26t-109.5 -77t-82.5 -127t-32.5 -176q0 -110 25 -190t69.5 -132t106.5 -76.5t137 -24.5q78 0 131.5 20.5 t86 51t47 65t14.5 61.5h138q0 -31 -9.5 -67.5t-30 -74t-53 -72.5t-78.5 -62t-107.5 -43.5t-138.5 -16.5q-105 0 -192.5 33t-150.5 101.5t-98 174.5t-35 252z" />
<glyph unicode="d" d="M82 550q0 58 10.5 120t33 121t57.5 111.5t83 92t109.5 62.5t137.5 23q51 0 96.5 -4.5t86 -16t75.5 -32t64 -52.5v486h138v-1461h-138v123q-28 -23 -61.5 -49t-71.5 -48t-81 -36.5t-91 -14.5q-72 0 -133 22.5t-111 62t-88 93.5t-64 118t-39 135t-13 144zM220 550 q0 -83 20.5 -162t59.5 -140t97 -98t133 -37q57 0 105 24t87 57t67.5 68.5t45.5 58.5v419q-17 31 -47 66.5t-71 65.5t-92.5 50t-111.5 20q-52 0 -93.5 -17t-74.5 -46t-56.5 -68t-38.5 -82.5t-22.5 -89.5t-7.5 -89z" />
<glyph unicode="e" d="M90 548q0 102 30.5 197.5t90.5 170t148 119.5t202 45q245 0 371 -150.5t126 -437.5h-828q7 -79 33.5 -148t71.5 -120.5t107 -81t141 -29.5t136.5 24t95 56.5t55 66t17.5 52.5h138q0 -21 -11.5 -54t-35 -70.5t-59 -75.5t-85 -68.5t-112 -49.5t-139.5 -19 q-119 0 -210.5 45.5t-154.5 124t-95.5 182.5t-32.5 221zM234 630h682q-17 153 -105.5 232.5t-249.5 79.5q-70 0 -126 -25t-97 -68t-67.5 -99.5t-36.5 -119.5z" />
<glyph unicode="f" horiz-adv-x="568" d="M16 921v138h170v149q0 73 25.5 126.5t64 88t82.5 51t82 16.5h170v-138h-170q-17 0 -37.5 -8.5t-38 -26.5t-29 -45t-11.5 -64v-149h238v-138h-238v-921h-138v921h-170z" />
<glyph unicode="g" d="M77 536q0 120 41.5 220t107 172t145 112t156.5 40q91 0 171 -31t145 -77v90h138v-1077q0 -87 -34 -162.5t-93.5 -131.5t-140 -88.5t-173.5 -32.5t-171 25.5t-134 69t-87 101.5t-31 124h138q0 -37 21 -70t59 -58t90 -39.5t115 -14.5t118.5 21.5t96.5 59t64.5 88 t23.5 108.5v151q-34 -34 -72.5 -63.5t-81.5 -51t-90 -34t-98 -12.5q-83 0 -160 43t-135.5 118.5t-93.5 178t-35 221.5zM215 536q0 -90 23.5 -167.5t63 -134t91.5 -89t108 -32.5q54 0 102.5 21t91 55t80 77t68.5 88v435q-25 28 -59 55.5t-74.5 49.5t-87 35t-95.5 13 q-53 0 -108.5 -30t-100.5 -84t-74 -128.5t-29 -163.5z" />
<glyph unicode="h" d="M157 -3v1468h138v-556q86 91 166.5 131t172.5 40q67 0 131 -28t114 -75t80 -108.5t30 -127.5v-741h-138v741q0 39 -18.5 75.5t-49 64.5t-69.5 44.5t-80 16.5q-44 0 -84 -14.5t-80.5 -45t-83 -78t-91.5 -113.5v-694h-138z" />
<glyph unicode="i" horiz-adv-x="467" d="M167 -1v1063h138v-1063h-138zM167 1262v203h138v-203h-138z" />
<glyph unicode="j" horiz-adv-x="467" d="M-74 -290h123q41 0 64.5 21.5t35 55t14.5 75.5t3 83v1117h137v-1167q0 -64 -9.5 -122.5t-36.5 -103t-77 -71t-131 -26.5h-123v138zM166 1262v203h137v-203h-137z" />
<glyph unicode="k" horiz-adv-x="1024" d="M163 0v1465h138v-864l468 479l98 -96l-312 -320l410 -614l-114 -76l-394 590l-156 -160v-404h-138z" />
<glyph unicode="l" horiz-adv-x="467" d="M167 0v1465h138v-1465h-138z" />
<glyph unicode="m" horiz-adv-x="1704" d="M149 0v1062h138v-160q34 40 70 72.5t75 56t81 36.5t88 13q122 0 200.5 -56.5t108.5 -151.5q37 46 75.5 84t80.5 65.5t88 43t96 15.5q79 0 140 -24.5t103 -68.5t63.5 -105t21.5 -134v-748h-138v748q0 43 -12.5 78.5t-36.5 61t-59.5 40t-81.5 14.5q-44 0 -86 -22.5 t-81.5 -60.5t-78 -89t-75.5 -109v-661h-138v748q0 43 -12.5 78.5t-36.5 61t-59.5 40t-81.5 14.5q-43 0 -83.5 -21.5t-79.5 -58t-76.5 -86t-74.5 -105.5v-671h-138z" />
<glyph unicode="n" d="M159 0v1062h138v-171q38 41 79.5 76t85 60t89 39t91.5 14q79 0 145 -24.5t113 -68.5t73.5 -105t26.5 -134v-748h-138v748q0 43 -17 78.5t-47 61t-70 40t-86 14.5q-42 0 -87 -22t-89.5 -59.5t-87.5 -87.5t-81 -105v-668h-138z" />
<glyph unicode="o" d="M70 529q0 58 9.5 121t32.5 124.5t60 117t92.5 97t130 66.5t172.5 25q109 0 188 -29t133.5 -76.5t87.5 -107.5t51 -121t24 -118t6 -99q0 -45 -9.5 -103.5t-32 -120t-59 -121t-91 -106t-128.5 -75t-170 -28.5q-97 0 -171 25.5t-129.5 68t-93 98.5t-60.5 117.5t-33 124.5 t-10 120zM208 529q0 -42 7.5 -89.5t24 -94t43.5 -88.5t67 -74t93.5 -51t123.5 -19q69 0 122.5 21.5t92.5 56.5t65.5 79.5t42 90.5t22.5 90t7 78q0 31 -4.5 74t-17 89t-36.5 90.5t-63 80t-96 57.5t-135 22q-106 0 -175.5 -40t-110 -101.5t-57 -134t-16.5 -137.5z" />
<glyph unicode="p" d="M161 -408v1469h138v-128q28 23 61.5 49t71.5 48t81 36.5t91 14.5q108 0 191.5 -49t140.5 -129t86.5 -184t29.5 -213q0 -58 -10.5 -120t-33 -121t-57.5 -111.5t-83 -92t-109.5 -62.5t-137.5 -23q-51 0 -96.5 4.5t-86 16t-75.5 32t-64 52.5v-489h-138zM299 316 q17 -32 47 -67.5t71 -65.5t92.5 -49.5t111.5 -19.5q52 0 93.5 17t74.5 46t56.5 68t38.5 82.5t22.5 89.5t7.5 89q0 83 -20.5 162t-59.5 140t-97 98t-133 37q-57 0 -105 -24t-87 -57t-67.5 -68.5t-45.5 -58.5v-419z" />
<glyph unicode="q" d="M80 506q0 109 29.5 213t86.5 184t140.5 129t191.5 49q48 0 91 -14.5t81 -36.5t71.5 -48t61.5 -49v128h138v-1469h-138v489q-29 -32 -64 -52.5t-75.5 -32t-86 -16t-96.5 -4.5q-76 0 -137.5 23t-109.5 62.5t-83 92t-57.5 111.5t-33 121t-10.5 120zM218 506q0 -43 7.5 -89 t22.5 -89.5t38.5 -82.5t56.5 -68t74.5 -46t93.5 -17q60 0 111.5 19.5t92.5 49.5t71 65.5t47 67.5v419q-17 23 -45.5 58.5t-67.5 68.5t-87 57t-105 24q-75 0 -133 -37t-97 -98t-59.5 -140t-20.5 -162z" />
<glyph unicode="r" horiz-adv-x="682" d="M145 0v1062h138v-168q27 38 59.5 72t71.5 59.5t84.5 40t97.5 14.5h93v-138h-93q-67 0 -120 -36t-92 -88t-64 -110t-37 -103v-605h-138z" />
<glyph unicode="s" horiz-adv-x="1024" d="M63 317h138q0 -40 26.5 -77t70 -65t100 -45t117.5 -17q36 0 85.5 12t95.5 36q23 13 37.5 28t30.5 34q25 30 25 66q0 10 -2 21q3 11 3 21q0 24 -16 44q-22 27 -64 46q-43 20 -98.5 34.5t-112.5 27.5q-77 18 -151 38t-132 52.5t-93.5 83t-35.5 129.5q0 72 37.5 126.5 t97.5 92t133.5 56.5t145.5 19q86 0 160.5 -21t129.5 -59t86.5 -92t31.5 -121h-138q0 35 -21 63.5t-57 49t-85.5 31.5t-106.5 11q-48 0 -97 -10t-89 -30t-65 -49t-25 -67q0 -37 26.5 -63t70 -45.5t97.5 -33.5t110 -27q76 -17 144.5 -38.5t128.5 -55.5q30 -17 54.5 -37.5 t41 -47t24.5 -58.5q5 -21 4 -44q0 -13 -1 -26q2 -15 2 -30q0 -26 -7 -50q-11 -37 -33 -68.5t-52 -57.5t-63 -47q-67 -42 -135.5 -62t-121.5 -20q-88 0 -169.5 28.5t-144.5 75.5t-100.5 109t-37.5 129z" />
<glyph unicode="t" horiz-adv-x="568" d="M34 913v138h152v273h138v-273h201v-138h-201v-661q0 -37 11.5 -59.5t29 -34.5t38 -16t37.5 -4h110v-138h-110q-38 0 -82 12t-82.5 41t-64 77.5t-25.5 121.5v661h-152z" />
<glyph unicode="u" d="M148 307v755h138v-755q0 -43 17 -78.5t47 -61t70 -40t86 -14.5q42 0 87 22t89.5 59.5t87.5 87t81 105.5v675h138v-1062h-138v164q-38 -41 -79.5 -76t-85 -60t-89 -39t-91.5 -14q-79 0 -145 24.5t-113 68.5t-73.5 105t-26.5 134z" />
<glyph unicode="v" horiz-adv-x="1024" d="M62 1032l130 48l321 -875q78 220 156 438t156 438l130 -46l-368 -1035h-147z" />
<glyph unicode="w" horiz-adv-x="1479" d="M28 1042l132 40l258 -848q30 97 62 202t64 211.5t64 211.5t62 203h142l258 -825l249 844l132 -38l-306 -1043h-146l-257 822q-29 -96 -61 -200t-64 -209.5t-64 -210.5t-62 -202h-146z" />
<glyph unicode="x" horiz-adv-x="1024" d="M79 52l349 502l-315 449l114 78l285 -407l282 406l114 -78l-312 -448l352 -501l-114 -78l-322 458l-319 -459z" />
<glyph unicode="y" horiz-adv-x="1024" d="M58 1032l130 48l331 -888q22 63 48 134t52 145.5t52.5 148t50.5 141.5q56 158 113 319l130 -46q-86 -244 -162 -458q-32 -91 -65 -184.5t-63 -177.5t-55 -152.5t-40 -110.5q-25 -67 -46.5 -121.5t-46.5 -97t-56.5 -73.5t-75.5 -51t-103.5 -29.5t-141.5 -9.5v138 q86 0 139 15.5t87.5 49.5t58.5 88t52 131z" />
<glyph unicode="z" horiz-adv-x="1024" d="M41 0v138l720 786h-682v138h868v-138l-720 -786h754v-138h-940z" />
<glyph unicode="{" horiz-adv-x="684" d="M56 461v138q67 0 104 34t54.5 89.5t21.5 125t5 141.5q1 63 3 124.5t10.5 117.5t27 103.5t51.5 82.5t83.5 54.5t124.5 19.5h93v-138h-93q-60 0 -92.5 -31.5t-47.5 -82.5t-18.5 -117t-4.5 -135q-1 -66 -3.5 -132.5t-12.5 -126.5t-31.5 -110.5t-59.5 -86.5q42 -37 66 -88 t37 -111.5t17 -127.5t7 -135q3 -66 7 -131t18 -116t41.5 -82.5t76.5 -31.5h90v-138h-90q-64 0 -109 20t-75.5 55t-48.5 82.5t-28 102t-14 114t-6 119.5q-3 72 -9.5 143.5t-27 128t-60 91.5t-107.5 35z" />
<glyph unicode="|" horiz-adv-x="532" d="M198 -430v1895h138v-1895h-138z" />
<glyph unicode="}" horiz-adv-x="684" d="M49 1353v138h93q74 0 124.5 -19.5t83.5 -54.5t51.5 -82.5t27 -103.5t10.5 -117.5t3 -124.5q1 -72 5 -141.5t21.5 -125t54.5 -89.5t104 -34v-138q-68 0 -107.5 -35t-60 -91.5t-27 -128t-9.5 -143.5q-2 -60 -6 -119.5t-14 -114t-28 -102t-48.5 -82.5t-75.5 -55t-109 -20 h-90v138h90q49 0 76.5 31.5t41.5 82.5t18 116t7 131q3 68 7 135t17 127.5t37 111.5t66 88q-38 36 -59.5 86.5t-31.5 110.5t-12.5 126.5t-3.5 132.5q-1 69 -4.5 135t-18.5 117t-47.5 82.5t-92.5 31.5h-93z" />
<glyph unicode="~" horiz-adv-x="1195" d="M39 514q43 39 95 70q45 26 104.5 48.5t129.5 22.5q67 0 128 -21.5t123 -47.5q56 -24 113.5 -44.5t119.5 -20.5q53 0 90.5 15.5t60.5 34.5q27 22 45 51l122 -66q-30 -49 -75 -87q-19 -16 -43.5 -31.5t-55 -27.5t-66.5 -19.5t-78 -7.5q-79 0 -150.5 24.5t-136.5 52.5 q-48 20 -100 38.5t-97 18.5q-49 0 -91 -16t-74 -35q-37 -22 -68 -50z" />
<glyph unicode="&#xa3;" horiz-adv-x="1074" d="M17 92q74 52 132 113q25 26 48.5 56.5t42.5 64.5t30.5 70.5t11.5 75.5q0 62 -3.5 108.5t-9.5 84.5h-216v138h180q-10 25 -19 51.5t-16 59t-12.5 73t-8.5 93.5q0 118 40 197t102.5 126t139.5 67t152 20q84 0 163.5 -27t141.5 -77t99.5 -122t37.5 -162h-138q0 58 -26 104 t-68.5 78.5t-97.5 50t-112 17.5q-51 0 -103.5 -13t-95 -44.5t-70 -84t-27.5 -130.5q4 -51 11.5 -90t15.5 -71t17 -59.5t18 -56.5h343v-138h-312q5 -38 8 -85t3 -108q0 -47 -17.5 -94.5t-38.5 -86.5q-25 -46 -56 -89q53 10 109 10q38 0 72 -5t65 -12.5t59.5 -17.5t56.5 -20 q45 -17 89.5 -30.5t92.5 -13.5q38 0 66 4.5t48 10.5q23 7 39 16l43 -124q-30 -13 -63 -23q-28 -8 -63 -15t-70 -7q-67 0 -121.5 16t-108.5 36q-48 17 -98 32t-107 15q-59 0 -116.5 -15t-103.5 -33q-54 -21 -103 -47z" />
<glyph unicode="&#xa5;" horiz-adv-x="1126" d="M51 1416l116 76l395 -736l393 733l116 -76l-362 -662h361v-138h-437l-2 -5v-146h439v-138h-439v-324h-138v324h-431v138h431v147l-2 4h-429v138h353z" />
<glyph unicode="&#xad;" horiz-adv-x="682" d="M65 464v138h551v-138h-551z" />
<glyph unicode="&#xbc;" horiz-adv-x="1760" d="M100 1300l224 190h138v-757h-138v576l-136 -115zM256 -17l1089 1519l112 -80l-1089 -1519zM1029 117v138l388 465h138v-465h105v-138h-105v-142h-138v142h-388zM1208 255h209v250z" />
<glyph unicode="&#xbd;" horiz-adv-x="1754" d="M100 1300l224 190h138v-757h-138v576l-136 -115zM256 -17l1089 1519l112 -80l-1089 -1519zM1060 499q0 60 29.5 105t74.5 74.5t97.5 44.5t98.5 15t97.5 -11t95 -36.5t71.5 -67.5t28 -104q0 -40 -17 -79t-45 -76t-64.5 -71t-75 -64.5t-77 -57.5t-69.5 -48h350v-138h-573 q0 54 15.5 95t42.5 74.5t62 61.5t74 57q41 30 83.5 62t77 64t56.5 62.5t22 57.5q0 23 -15 38.5t-37.5 25t-49.5 13.5t-52 4t-53.5 -6t-52.5 -19t-40 -32t-16 -44h-138z" />
<glyph unicode="&#xbe;" horiz-adv-x="1844" d="M100 933h138q0 -20 17.5 -39t43.5 -34t56 -24.5t56 -9.5q25 0 54 6.5t53.5 20.5t41 36.5t16.5 54.5q0 30 -14.5 51t-40.5 34.5t-61.5 20t-76.5 7.5h-17v138h9q46 1 77.5 9t51 22.5t28 34t8.5 43.5q0 15 -11 27t-29.5 19.5t-44 11.5t-54.5 4t-55.5 -6.5t-46 -18t-31 -26.5 t-11.5 -33h-138q0 47 22.5 87.5t61 70.5t89.5 47t109 17t108.5 -12.5t88 -37.5t59 -62.5t21.5 -87.5q0 -26 -8.5 -52t-26 -49.5t-43.5 -41.5t-60 -28q37 -2 69 -18.5t55 -43t36.5 -60t13.5 -67.5q0 -70 -30 -118.5t-75.5 -79t-98.5 -44.5t-99 -14t-100 21.5t-101 56 t-78.5 78.5t-31.5 89zM340 -17l1089 1519l112 -80l-1089 -1519zM1113 117v138l388 465h138v-465h105v-138h-105v-142h-138v142h-388zM1292 255h209v250z" />
<glyph unicode="&#x2000;" horiz-adv-x="818" />
<glyph unicode="&#x2001;" horiz-adv-x="1637" />
<glyph unicode="&#x2002;" horiz-adv-x="818" />
<glyph unicode="&#x2003;" horiz-adv-x="1637" />
<glyph unicode="&#x2004;" horiz-adv-x="545" />
<glyph unicode="&#x2005;" horiz-adv-x="409" />
<glyph unicode="&#x2006;" horiz-adv-x="272" />
<glyph unicode="&#x2007;" horiz-adv-x="272" />
<glyph unicode="&#x2008;" horiz-adv-x="204" />
<glyph unicode="&#x2009;" horiz-adv-x="327" />
<glyph unicode="&#x200a;" horiz-adv-x="90" />
<glyph unicode="&#x2010;" horiz-adv-x="682" d="M65 464v138h551v-138h-551z" />
<glyph unicode="&#x2011;" horiz-adv-x="682" d="M65 464v138h551v-138h-551z" />
<glyph unicode="&#x2012;" horiz-adv-x="682" d="M65 464v138h551v-138h-551z" />
<glyph unicode="&#x2013;" horiz-adv-x="1024" d="M92 464v138h841v-138h-841z" />
<glyph unicode="&#x2014;" horiz-adv-x="1552" d="M66 464v138h1429v-138h-1429z" />
<glyph unicode="&#x2018;" horiz-adv-x="439" d="M100 975v360l220 210l19 -125l-101 -134l22 -106h56v-205h-216z" />
<glyph unicode="&#x2019;" horiz-adv-x="439" d="M100 1100l101 134l-22 106h-56v205h216v-360l-220 -210z" />
<glyph unicode="&#x201a;" horiz-adv-x="439" d="M100 -240l101 134l-22 106h-56v205h216v-360l-220 -210z" />
<glyph unicode="&#x201c;" horiz-adv-x="799" d="M100 975v360l220 210l19 -125l-101 -134l22 -106h56v-205h-216zM460 975v360l220 210l19 -125l-101 -134l22 -106h56v-205h-216z" />
<glyph unicode="&#x201d;" horiz-adv-x="799" d="M100 1100l101 134l-22 106h-56v205h216v-360l-220 -210zM460 1100l101 134l-22 106h-56v205h216v-360l-220 -210z" />
<glyph unicode="&#x201e;" horiz-adv-x="799" d="M100 -240l101 134l-22 106h-56v205h216v-360l-220 -210zM460 -240l101 134l-22 106h-56v205h216v-360l-220 -210z" />
<glyph unicode="&#x202f;" horiz-adv-x="327" />
<glyph unicode="&#x205f;" horiz-adv-x="409" />
<glyph unicode="&#x20ac;" horiz-adv-x="1337" d="M100 534v138h130q-2 18 -2 36.5v38.5v26.5t1 25.5h-129v138h145q20 105 60 186.5t93.5 143t115.5 104t126.5 69t127 38.5t116.5 12q93 0 159.5 -17t109.5 -37q50 -24 84 -53l-98 -98q-22 18 -57 33q-30 13 -78.5 23.5t-119.5 10.5q-41 0 -88.5 -9t-96.5 -29t-96.5 -52 t-89.5 -78t-74.5 -107.5t-51.5 -139.5h707v-138h-727q-1 -13 -1 -25.5v-26.5q0 -20 0.5 -38.5t1.5 -36.5h726v-138h-706q20 -86 54 -150.5t77 -111.5t92 -77.5t98.5 -48.5t96 -25.5t85.5 -7.5q65 0 107 8t67 19q29 12 45 28l106 -90q-28 -29 -73 -52q-39 -20 -100.5 -35.5 t-151.5 -15.5q-50 0 -111.5 9.5t-126 33.5t-128.5 64.5t-119 103t-97 148t-63 200.5h-146z" />
<glyph unicode="&#x25fc;" horiz-adv-x="1080" d="M0 0v1080h1080v-1080h-1080z" />
</font>
</defs>
</svg>
