<?xml version="1.0" standalone="no"?>
<!DOCTYPE svg PUBLIC "-//W3C//DTD SVG 1.1//EN" "http://www.w3.org/Graphics/SVG/1.1/DTD/svg11.dtd" >
<svg>
<metadata>
Created by FontForge 20090914 at Fri Mar  7 08:13:39 2014
 By www-data
Copyright (c) 1991, 1998 Adobe Systems Incorporated.  All Rights Reserved.Berthold Akzidenz-Grotesk is either a registered trademark or trademark of Berthold Types Limited in the United States and/or other countries.
</metadata>
<defs>
<font id="AkzidenzGroteskBE-Cn" horiz-adv-x="375" >
  <font-face 
    font-family="Akzidenz Grotesk BE Cn"
    font-weight="400"
    font-stretch="condensed"
    units-per-em="1000"
    panose-1="2 11 5 6 0 0 0 0 0 0"
    ascent="750"
    descent="-250"
    x-height="500"
    cap-height="706"
    bbox="-134 -250 875 901"
    underline-thickness="50"
    underline-position="-50"
    unicode-range="U+0020-U+FB02"
  />
<missing-glyph horiz-adv-x="229" 
 />
    <glyph glyph-name=".notdef" horiz-adv-x="229" 
 />
    <glyph glyph-name="space" unicode=" " horiz-adv-x="229" 
 />
    <glyph glyph-name="space" unicode="&#xa0;" horiz-adv-x="229" 
 />
    <glyph glyph-name="exclam" unicode="!" horiz-adv-x="208" 
d="M167 118v-118h-85v118h85zM167 484l-21 -292h-45l-19 292v223h85v-223z" />
    <glyph glyph-name="quotedbl" unicode="&#x22;" horiz-adv-x="396" 
d="M343 690l-41 -256.001h-23l-38 244c-1.33301 8 -2 13.667 -2 17c0 18.667 5.83301 32.334 17.5 41.001s24.167 13 37.5 13c15.333 0 28 -5.16699 38 -15.5s13.667 -24.833 11 -43.5zM156 689.999l-41 -256.001h-23l-38 244c-1.33301 8 -2 13.667 -2 17
c0 18.667 5.83301 32.334 17.5 41.001s24.167 13 37.5 13c15.333 0 28 -5.16699 38 -15.5s13.667 -24.833 11 -43.5z" />
    <glyph glyph-name="numbersign" unicode="#" horiz-adv-x="583" 
d="M559 307v-77h-150l-33 -230h-80l33 230h-111l-32 -230h-81l33 230h-138v77h149l16 107h-141v77h151l31 215h80l-30 -215h110l31 215h78l-29 -215h138v-77h-149l-16 -107h140zM229 307h111l15 107h-111z" />
    <glyph glyph-name="dollar" unicode="$" horiz-adv-x="396" 
d="M229 -9v-85.001h-57v85c-60 6.66699 -102 32.667 -126 78c-8 15.333 -12.833 33 -14.5 53s-2.5 60.667 -2.5 122h82c0 -64 0.666992 -100.667 2 -110c2.66699 -16 8 -29.167 16 -39.5s14.833 -16.666 20.5 -18.999s13.167 -5.16602 22.5 -8.49902v261l-42 44
c-31.333 32.667 -53 60.667 -65 84s-18 54.666 -18 93.999c0 56 10.667 95.833 32 119.5s52.333 38.834 93 45.501v84h57v-84c49.333 -5.33301 82.833 -20.833 100.5 -46.5s26.5 -64.834 26.5 -117.501v-54h-80c0 50 -2.5 84 -7.5 102s-18.167 30.333 -39.5 37v-238l47 -51
c36.667 -40 61.5 -72.833 74.5 -98.5s19.5 -56.167 19.5 -91.5c0 -96.667 -47 -152 -141 -166zM229 264.999v-198c37.333 12.667 56 43 56 91c0 34 -18.667 69.667 -56 107zM172 456.999v179c-28 -13.333 -42 -40 -42 -80c0 -16 2.16699 -30.667 6.5 -44s9 -23.333 14 -30
s12.167 -15 21.5 -25z" />
    <glyph glyph-name="percent" unicode="%" horiz-adv-x="625" 
d="M509 707l-344 -707h-49l347 707h46zM229 486c0 -72.667 -1.00098 -118.999 -3.00098 -138.999c-6 -58 -39 -87 -99 -87c-22 0 -40.333 3.16699 -55 9.5s-25.167 15.333 -31.5 27s-10.333 20.667 -12 27s-3.16699 14.5 -4.5 24.5c-1.33301 14 -2 90.333 -2 229
c0 13.333 0.166992 24.166 0.5 32.499s2.33301 19.833 6 34.5s8.83398 26.167 15.501 34.5s17 16 31 23s30.667 10.5 50 10.5c58 0 91.667 -28.333 101 -85c2 -12.667 3 -59.667 3 -141zM160.999 484.001l-0.000976562 87.999c0 16.667 -0.166992 28.5 -0.5 35.5
s-1.66602 14.5 -3.99902 22.5s-6 13.333 -11 16s-11.833 4 -20.5 4c-10.667 0 -18.834 -3 -24.501 -9s-9 -12.167 -10 -18.5s-1.5 -14.833 -1.5 -25.5c-0.666992 -23.333 -1 -76 -1 -158c0 -54 1.66699 -87.167 5 -99.5s13.666 -18.5 30.999 -18.5c10 0 17.833 2 23.5 6
s8.83398 7.83301 9.50098 11.5s1.33398 8.83398 2.00098 15.501c1.33301 14 2 57.333 2 130zM603.998 222c0 -73.333 -1.00098 -119.998 -3.00098 -139.998c-6 -58 -39 -87 -99 -87c-22 0 -40.333 3.16699 -55 9.5s-25.167 15.333 -31.5 27s-10.333 20.667 -12 27
s-3.16699 14.5 -4.5 24.5c-1.33301 14 -2 90.333 -2 229c0 13.333 0.166992 24.166 0.5 32.499s2.33301 19.833 6 34.5s8.83398 26.167 15.501 34.5s17 16 31 23s30.667 10.5 50 10.5c58 0 91.667 -28.333 101 -85c2 -12.667 3 -59.334 3 -140.001zM535.997 219.002
l-0.000976562 87.999c0 16.667 -0.166992 28.5 -0.5 35.5s-1.66602 14.5 -3.99902 22.5s-6 13.333 -11 16s-11.833 4 -20.5 4c-10.667 0 -18.834 -3 -24.501 -9s-9 -12.167 -10 -18.5s-1.5 -14.833 -1.5 -25.5c-0.666992 -23.333 -1 -76 -1 -158
c0 -53.333 1.66699 -86.333 5 -99s13.666 -19 30.999 -19c10 0 17.833 2 23.5 6s8.83398 7.83301 9.50098 11.5s1.33398 8.83398 2.00098 15.501c1.33301 14 2 57.333 2 130z" />
    <glyph glyph-name="ampersand" unicode="&#x26;" horiz-adv-x="458" 
d="M338 307l76.9961 -1c2 -73.333 -15.333 -140.333 -52 -201c6 -7.33301 10.833 -13 14.5 -17s10.834 -8 21.501 -12s23.334 -5.66699 38.001 -5v-75c-52.667 -3.33301 -93.667 12.334 -123 47.001c-37.333 -35.333 -81.666 -53 -132.999 -53
c-47.333 0 -85.833 15 -115.5 45s-44.5 69.667 -44.5 119c0 58.667 20.333 111 61 157l44 44c-30.667 68 -46 117.333 -46 148c0 29.333 10 56.5 30 81.5s50.333 37.5 91 37.5c34.667 0 63.834 -10.167 87.501 -30.5s35.5 -48.5 35.5 -84.5
c0 -52.667 -33.333 -109.334 -100 -170.001c14.667 -29.333 44.667 -82 90 -158c15.333 28 23.333 70.667 24 128zM264.996 103c-20.667 27.333 -54.667 86.334 -102 177.001c-37.333 -28.667 -56.333 -73.334 -57 -134.001c-0.666992 -27.333 7 -48.333 23 -63
s34.333 -22 55 -22c29.333 0 56.333 14 81 42zM190.996 408.001c17.333 18 29.167 31.001 35.5 39.001s12 17.167 17 27.5s7.5 21.166 7.5 32.499c0 16 -4.66699 28.167 -14 36.5s-20.333 12.5 -33 12.5c-30.667 0 -46 -17.667 -46 -53c0 -25.333 11 -57 33 -95z" />
    <glyph glyph-name="quotesingle" unicode="'" horiz-adv-x="208" 
d="M156 690l-41 -256.001h-23l-38 244c-1.33301 8 -2 13.667 -2 17c0 18.667 5.83301 32.334 17.5 41.001s24.167 13 37.5 13c15.333 0 28 -5.16699 38 -15.5s13.667 -24.833 11 -43.5z" />
    <glyph glyph-name="parenleft" unicode="(" horiz-adv-x="292" 
d="M235 718l43.001 -38.001c-40 -60 -70 -118.667 -90 -176s-30 -133 -30 -227c0 -166 41.667 -303 125 -411l-41 -37c-10.667 12 -23.834 29.833 -39.501 53.5s-34.5 55.5 -56.5 95.5s-40.333 86.833 -55 140.5s-22 106.834 -22 159.501c0 150 55.333 296.667 166 440z" />
    <glyph glyph-name="parenright" unicode=")" horiz-adv-x="292" 
d="M49 -171l-40.999 37.001c83.333 108 125 245 125 411c0 94 -10 169.667 -30 227s-50 116 -90 176l43 38c110.667 -143.333 166 -290 166 -440c0 -52.667 -7.33301 -105.834 -22 -159.501s-33 -100.5 -55 -140.5s-40.833 -71.833 -56.5 -95.5s-28.834 -41.5 -39.501 -53.5
z" />
    <glyph glyph-name="asterisk" unicode="*" horiz-adv-x="354" 
d="M248 391l-68 95l-71 -95l-53 40l71 95l-115 36l21 66l113 -39v117h66v-117l112 34l19 -61l-110 -36l69 -95z" />
    <glyph glyph-name="plus" unicode="+" horiz-adv-x="500" 
d="M468 331v-80h-179v-179h-80v179h-178v80h178v179h80v-179h179z" />
    <glyph glyph-name="comma" unicode="," horiz-adv-x="167" 
d="M40 118h86.002v-113c0 -14.667 -0.333008 -26.667 -1 -36s-2.5 -20.5 -5.5 -33.5s-7.33301 -23.667 -13 -32s-14.167 -16.333 -25.5 -24s-25 -13.167 -41 -16.5v52c17.333 5.33301 28.166 14.333 32.499 27s6.16602 32 5.49902 58h-38v118z" />
    <glyph glyph-name="hyphen" unicode="-" horiz-adv-x="271" 
d="M250 309v-78h-230v78h230z" />
    <glyph glyph-name="hyphen" unicode="&#xad;" horiz-adv-x="271" 
d="M250 309v-78h-230v78h230z" />
    <glyph glyph-name="period" unicode="." horiz-adv-x="167" 
d="M126 118v-118h-85v118h85z" />
    <glyph glyph-name="slash" unicode="/" horiz-adv-x="292" 
d="M287 706l-198 -706h-84l201 706h81z" />
    <glyph glyph-name="zero" unicode="0" 
d="M347 354c0 -115.333 -1.66895 -191.331 -5.00195 -227.998c-1.33301 -10.667 -2.66602 -19.667 -3.99902 -27s-5.33301 -18.5 -12 -33.5s-14.834 -27.333 -24.501 -37s-24.167 -18.334 -43.5 -26.001s-42 -11.5 -68 -11.5c-83.333 0 -133.333 31 -150 93
c-8 29.333 -12 119.666 -12 270.999c0 104.667 0.833008 171.5 2.5 200.5s5.83398 52.833 12.501 71.5c6.66699 19.333 16.667 35.333 30 48s27.833 21.667 43.5 27s28.834 8.83301 39.501 10.5s21 2.5 31 2.5c72 0 119.667 -28.667 143 -86
c8 -19.333 12.833 -42.5 14.5 -69.5s2.5 -95.5 2.5 -205.5zM257.998 350.002l-0.000976562 118.001c0 24.667 -0.166992 42.5 -0.5 53.5s-1.16602 24.667 -2.49902 41s-3.33301 27.666 -6 33.999s-6.5 13.333 -11.5 21s-11.667 12.667 -20 15s-18.166 3.5 -29.499 3.5
c-16 0 -29.333 -3 -40 -9s-18 -14.833 -22 -26.5s-6.5 -21.667 -7.5 -30s-1.83301 -19.5 -2.5 -33.5c-0.666992 -36 -1 -110 -1 -222c0 -77.333 0.333008 -126 1 -146c0 -16 0.666992 -28.333 2 -37s4 -18.667 8 -30s11 -19.666 21 -24.999s23 -8 39 -8s29 2.5 39 7.5
s17.167 13.167 21.5 24.5s7.16602 21.666 8.49902 30.999s2 23 2 41c0.666992 13.333 1 72.333 1 177z" />
    <glyph glyph-name="one" unicode="1" 
d="M243 706l-0.000976562 -706h-89v554h-117v67c16 0 28.333 0.166992 37 0.5s19.834 2 33.501 5s24.167 7.33301 31.5 13s14 14.167 20 25.5s9 25 9 41h75z" />
    <glyph glyph-name="two" unicode="2" 
d="M343 76l0.000976562 -75.999h-309v84l146 247c30.667 52.667 50.167 91 58.5 115s12.5 54.667 12.5 92c0 64 -21.667 96 -65 96c-14.667 0 -26.667 -3 -36 -9s-15.833 -15 -19.5 -27s-5.83398 -22 -6.50098 -30s-1 -19 -1 -33v-81h-81v88c0 62.667 12 106.667 36 132
c26 27.333 61.333 41 106 41c44 0 79 -13.667 105 -41c30 -32 45 -79.667 45 -143c0 -41.333 -5.5 -77.833 -16.5 -109.5s-27.5 -65.834 -49.5 -102.501l-145 -243h220z" />
    <glyph glyph-name="three" unicode="3" 
d="M123 506l-79.998 0.00195312c-1.33301 74 5.33398 124 20.001 150c22 39.333 63.333 59 124 59c52 0 90 -17 114 -51c20.667 -26.667 31 -71.334 31 -134.001c0 -50.667 -5.16699 -87.334 -15.5 -110.001s-32.5 -37.334 -66.5 -44.001
c39.333 -9.33301 64.666 -26.666 75.999 -51.999s17 -77 17 -155c0 -60 -14.667 -105 -44 -135c-28.667 -28.667 -66.667 -43 -114 -43c-38.667 0 -72.334 9 -101.001 27c-18.667 12 -32.5 29.833 -41.5 53.5s-13 47 -12 70s1.16699 46.167 0.5 69.5h80
c-0.666992 -18 -0.666992 -40 0 -66c2 -51.333 25 -77 69 -77c22 0 38.833 5.83301 50.5 17.5s18.5 23.167 20.5 34.5s3 25.333 3 42c0.666992 8.66699 1 32.334 1 71.001c0 37.333 -7.5 63.333 -22.5 78s-37.833 22 -68.5 22c-12.667 0 -21.667 -0.333008 -27 -1v79
c15.333 -2 29.666 -2 42.999 0s25 5.66699 35 11s18 15.666 24 30.999s9 35 9 59c0 47.333 -3.83301 80.166 -11.5 98.499s-25.167 27.5 -52.5 27.5s-44.833 -11.167 -52.5 -33.5s-10.5 -55.166 -8.5 -98.499z" />
    <glyph glyph-name="four" unicode="4" 
d="M287 158v-158h-83v158h-183v97l143 452h123v-474h62v-75h-62zM87 233h117l4 394z" />
    <glyph glyph-name="five" unicode="5" 
d="M60 706l274 -0.00390625v-77h-194l-6 -175c20.667 20.667 49.334 31 86.001 31c44 0 77 -17.333 99 -52c14.667 -24 22 -70 22 -138c0 -93.333 -1 -150 -3 -170c-4.66699 -40.667 -20.667 -73.167 -48 -97.5s-64 -36.5 -110 -36.5c-101.333 0 -152 58.667 -152 176
c0 5.33301 0.166992 12.333 0.5 21s0.5 15 0.5 19h83c-1.33301 -19.333 -1.33301 -37.166 0 -53.499s3.66602 -30.833 6.99902 -43.5s10.333 -22.5 21 -29.5s25 -10.5 43 -10.5c18.667 0 33.5 4.66699 44.5 14s17.667 18 20 26s3.83301 16 4.5 24c2 19.333 3 71.333 3 156
c0 18.667 -0.5 32.834 -1.5 42.501s-3.33301 21.334 -7 35.001s-10.334 23.667 -20.001 30s-22.5 9.5 -38.5 9.5c-11.333 0 -21 -2.16699 -29 -6.5s-13.833 -8.83301 -17.5 -13.5s-6.66699 -11.667 -9 -21s-3.66602 -16.166 -3.99902 -20.499s-0.5 -11.5 -0.5 -21.5h-79z
" />
    <glyph glyph-name="six" unicode="6" 
d="M34 226l0.00195312 254.997c0 64.667 2 106 6 124c14 73.333 62 110 144 110c53.333 0 93 -15.667 119 -47c13.333 -16 21.666 -33.167 24.999 -51.5s5 -44.5 5 -78.5h-82c0 18.667 -0.333008 32.334 -1 41.001s-3 18.334 -7 29.001s-10.5 18.167 -19.5 22.5
s-21.5 6.5 -37.5 6.5c-36 0 -58 -16.333 -66 -49c-3.33301 -14 -5 -55.333 -5 -124v-53c28 33.333 61 50 99 50c37.333 0 67.666 -12.667 90.999 -38c15.333 -16 25.333 -35.833 30 -59.5s7 -64.5 7 -122.5c0 -99.333 -7.33301 -161.666 -22 -186.999
c-25.333 -42 -71 -63 -137 -63c-83.333 0 -131.333 36.667 -144 110c-3.33301 20 -5 61.667 -5 125zM256.002 222.997c0 46.667 -0.666016 79.3379 -1.99902 98.0049c-2.66699 44.667 -25.667 67 -69 67c-11.333 0 -21 -1.33301 -29 -4s-14.5 -8 -19.5 -16
s-9 -15.333 -12 -22s-5 -17.834 -6 -33.501s-1.66699 -28.834 -2 -39.501s-0.5 -27.667 -0.5 -51c0 -50.667 1 -83.334 3 -98.001c1.33301 -6.66699 2.66602 -11.667 3.99902 -15s4.33301 -9 9 -17s11.667 -14 21 -18s21 -6 35 -6c11.333 0 20.833 1.16699 28.5 3.5
s14 7.16602 19 14.499s9 14.166 12 20.499s5 16.833 6 31.5s1.66699 27 2 37s0.5 26 0.5 48z" />
    <glyph glyph-name="seven" unicode="7" 
d="M340 706v-65.001c0 -2.66699 -1.5 -6.5 -4.5 -11.5s-4.83301 -8.16699 -5.5 -9.5c-11.333 -24 -23.666 -53 -36.999 -87c-24 -64.667 -42.833 -132.167 -56.5 -202.5s-21.834 -126.5 -24.501 -168.5s-5 -96 -7 -162h-96c6.66699 170.667 34 325.334 82 464.001l62 163
h-220v79h307z" />
    <glyph glyph-name="eight" unicode="8" 
d="M338 550c0 -56 -3.49707 -96.168 -10.4971 -120.501s-22.5 -40.833 -46.5 -49.5c-2.66699 -0.666992 -6.33398 -1.5 -11.001 -2.5s-7.33398 -1.5 -8.00098 -1.5c0.666992 0 2.33398 -0.5 5.00098 -1.5s5.5 -2 8.5 -3s5.83301 -1.83301 8.5 -2.5
c11.333 -5.33301 20.833 -12.333 28.5 -21s13.5 -17.167 17.5 -25.5s7 -19.833 9 -34.5s3.16699 -26.667 3.5 -36s0.5 -22.666 0.5 -39.999c0 -67.333 -5.33301 -114.333 -16 -141c-7.33301 -18 -18.5 -33.167 -33.5 -45.5s-31 -20.5 -48 -24.5s-29.833 -6.66699 -38.5 -8
s-16.334 -2 -23.001 -2c-54.667 0 -95.334 16.667 -122.001 50c-20.667 26 -31 63.667 -31 113c0 26.667 0.166992 46 0.5 58s0.833008 27.167 1.5 45.5s2.16699 31.333 4.5 39s5.33301 17 9 28s8.5 19 14.5 24s13.167 10 21.5 15s18.5 9.16699 30.5 12.5
c-30.667 5.33301 -50.5 19.5 -59.5 42.5s-13.5 64.833 -13.5 125.5c0 14.667 0.333008 27.167 1 37.5s3.66699 24.666 9 42.999s12.833 33.333 22.5 45s24.5 22.167 44.5 31.5s44 14 72 14c55.333 0 96.333 -16.667 123 -50c17.333 -23.333 26 -61.666 26 -114.999z
M255.003 534.999c0 10 0.170898 19.9961 0.503906 29.9961s-0.666992 19.833 -3 29.5s-5.66602 18.167 -9.99902 25.5s-10.833 13.333 -19.5 18s-19.667 7 -33 7c-28.667 0 -47.334 -9.5 -56.001 -28.5s-13 -47.833 -13 -86.5c0 -17.333 0.166992 -30.166 0.5 -38.499
s1.66602 -18.666 3.99902 -30.999s5.83301 -21.166 10.5 -26.499s11.667 -10.166 21 -14.499s20.666 -6.5 33.999 -6.5c12 0 22 2 30 6s14.167 8.66699 18.5 14s7.66602 14.333 9.99902 27s3.66602 23.5 3.99902 32.5zM257.007 197.995
c0 18.667 -0.167969 32.5 -0.500977 41.5s-1.66602 20.333 -3.99902 34s-5.83301 23.667 -10.5 30s-11.667 12 -21 17s-20.666 7.5 -33.999 7.5c-17.333 0 -32 -4.33301 -44 -13c-11.333 -9.33301 -18.333 -21.5 -21 -36.5s-4 -43.167 -4 -84.5
c0 -18.667 0.166992 -32.5 0.5 -41.5s1.66602 -20 3.99902 -33s5.83301 -22.333 10.5 -28s11.5 -10.667 20.5 -15s20.167 -6.5 33.5 -6.5c16.667 0 30 3 40 9s17 16.167 21 30.5s6.5 27 7.5 38s1.5 27.833 1.5 50.5z" />
    <glyph glyph-name="nine" unicode="9" 
d="M37 186h80.9971c-0.666992 -33.333 -0.666992 -51.333 0 -54c0 -42 22 -63 66 -63c12.667 0 23.334 2.16699 32.001 6.5s15.334 9.16602 20.001 14.499s8.33398 14.333 11.001 27s4.16699 23.334 4.5 32.001l1.5 41v114c-29.333 -29.333 -63.333 -44 -102 -44
c-80.667 0 -121 54.333 -121 163c0 100 3 163.667 9 191c7.33301 36 24.5 61.833 51.5 77.5s58.167 23.5 93.5 23.5c32.667 0 59 -5 79 -15c40 -20 63.667 -54.667 71 -104c2 -11.333 3 -76 3 -194c0 -152 -1 -243.667 -3 -275c-8 -90.667 -58.333 -136 -151 -136
c-36 0 -67.167 8.5 -93.5 25.5s-42.5 40.5 -48.5 70.5c-2.66699 11.333 -4 44.333 -4 99zM253.997 483c0 54 -0.331055 83.667 -0.998047 89c-2.66699 22.667 -10.167 39.334 -22.5 50.001s-26.833 16 -43.5 16c-16 0 -31 -5 -45 -15s-22.333 -27.333 -25 -52
c-2 -16.667 -3 -55.667 -3 -117l1 -52c1.33301 -20.667 8.16602 -36.834 20.499 -48.501s29.166 -17.5 50.499 -17.5s38 6.66699 50 20s18 32.333 18 57v70z" />
    <glyph glyph-name="colon" unicode=":" horiz-adv-x="208" 
d="M168 477v-118h-85v118h85zM168 118v-118h-85v118h85z" />
    <glyph glyph-name="semicolon" unicode=";" horiz-adv-x="208" 
d="M82 118h85.0029v-113c0 -19.333 -0.666992 -34.666 -2 -45.999s-4.5 -24.5 -9.5 -39.5s-13.5 -27.167 -25.5 -36.5s-28 -16 -48 -20v51c9.33301 2.66699 16.666 6.66699 21.999 12s9.16602 12.5 11.499 21.5s3.66602 16.667 3.99902 23s0.5 16.166 0.5 29.499h-38v118z
M167.003 477v-118h-85v118h85z" />
    <glyph glyph-name="less" unicode="&#x3c;" horiz-adv-x="500" 
d="M500 155v-87l-500 242v86l500 242v-87l-401 -198z" />
    <glyph glyph-name="equal" unicode="=" horiz-adv-x="500" 
d="M500 238v-78h-500v78h500zM500 419v-78h-500v78h500z" />
    <glyph glyph-name="greater" unicode="&#x3e;" horiz-adv-x="500" 
d="M500 310l-500 -242v87l401 198l-401 198v87l500 -242v-86z" />
    <glyph glyph-name="question" unicode="?" horiz-adv-x="396" 
d="M265 118v-118h-85v118h85zM57 466l0.00195312 100c0 56.667 14.667 96 44 118c27.333 22 62.333 33 105 33c53.333 0 94.666 -17.667 123.999 -53c20 -25.333 30 -63 30 -113c0 -36.667 -1.66699 -63.834 -5 -81.501s-9.33301 -34.167 -18 -49.5
c-0.666992 -1.33301 -17.667 -29 -51 -83c-15.333 -26 -24.5 -46 -27.5 -60s-4.16699 -43.333 -3.5 -88h-66c0 59.333 1.33301 95.333 4 108c3.33301 18.667 20.666 57.667 51.999 117c14 26.667 22.5 47.334 25.5 62.001s4.5 45.334 4.5 92.001
c0 21.333 -6.83301 38.166 -20.5 50.499s-30.834 18.5 -51.501 18.5c-12.667 0 -23.5 -2 -32.5 -6s-15.833 -8.5 -20.5 -13.5s-8.16699 -11.833 -10.5 -20.5s-3.66602 -15.667 -3.99902 -21s-0.5 -12 -0.5 -20v-90h-78z" />
    <glyph glyph-name="at" unicode="@" horiz-adv-x="896" 
d="M787 76l33.002 -39.998c-111.333 -106.667 -233.333 -160 -366 -160c-32.667 0 -65.667 3.5 -99 10.5s-67.5 19.333 -102.5 37s-65.833 39.667 -92.5 66s-48.5 60.666 -65.5 102.999s-25.5 89.833 -25.5 142.5c0 61.333 11.5 121 34.5 179s54.5 108.833 94.5 152.5
s89 78.834 147 105.501s119.667 40 185 40c89.333 0 161.166 -26 215.499 -78s81.5 -122.333 81.5 -211c0 -58.667 -11 -115.334 -33 -170.001s-50.833 -98.834 -86.5 -132.501s-72.5 -50.5 -110.5 -50.5c-18 0 -33 3 -45 9s-20.5 14.333 -25.5 25
s-8.33301 19.334 -10 26.001s-2.83398 15 -3.50098 25c-41.333 -56 -89.333 -84 -144 -84c-5.33301 0 -11.166 0.333008 -17.499 1s-17 4 -32 10s-27.833 14.167 -38.5 24.5s-20.334 26.833 -29.001 49.5s-13 49.334 -13 80.001c0 72 21.5 137 64.5 195s92.167 87 147.5 87
c51.333 0 89.333 -28.333 114 -85l15 62h68l-33 -150c-18.667 -90.667 -28 -149 -28 -175c0 -10 1.5 -17.333 4.5 -22s8.5 -10.334 16.5 -17.001h10c31.333 0 64.333 30 99 90s52 126.333 52 199c0 76.667 -22.667 135.5 -68 176.5s-105.333 61.5 -180 61.5
c-67.333 0 -131.333 -18.5 -192 -55.5s-109.834 -88.5 -147.501 -154.5s-56.5 -138 -56.5 -216c0 -40.667 6.16699 -77.834 18.5 -111.501s29 -62 50 -85s45.667 -42.5 74 -58.5s57.833 -27.667 88.5 -35s62.334 -11 95.001 -11c122.667 0 234.667 48.333 336 145z
M541.002 348.002c0 36.667 -8.49902 63.335 -25.499 80.002s-35.833 25 -56.5 25c-28 0 -53.167 -12 -75.5 -36s-38.833 -52 -49.5 -84s-16 -63.667 -16 -95c0 -19.333 2.66699 -36 8 -50s11.166 -24.333 17.499 -31s14 -11.834 23 -15.501s15.333 -5.66699 19 -6
s7.16699 -0.5 10.5 -0.5c38.667 0 72.5 22.167 101.5 66.5s43.5 93.166 43.5 146.499z" />
    <glyph glyph-name="A" unicode="A" horiz-adv-x="396" 
d="M240 706l156 -706h-92l-25 136h-164l-24 -136h-91l152 706h88zM130 212h134l-69 363z" />
    <glyph glyph-name="B" unicode="B" horiz-adv-x="437" 
d="M50 706l129.001 -0.00292969c26.667 0 46.667 -0.333008 60 -1s28.5 -2.66699 45.5 -6s31.167 -8.66602 42.5 -15.999c42.667 -26 64 -73.667 64 -143c0 -49.333 -9.5 -88.166 -28.5 -116.499s-47.5 -42.5 -85.5 -42.5c44.667 0 76.667 -15.5 96 -46.5
s29 -70.5 29 -118.5c0 -42.667 -3.16699 -76.667 -9.5 -102s-18.5 -47.666 -36.5 -66.999c-20.667 -21.333 -43.334 -34.5 -68.001 -39.5s-63.667 -7.5 -117 -7.5h-121v706zM138.001 626.997l-0.000976562 -211h60c17.333 0 30.5 0.666992 39.5 2s19.667 5 32 11
s21.333 16.833 27 32.5s8.5 36.167 8.5 61.5c0 24.667 -2.66699 44.5 -8 59.5s-14.333 25.5 -27 31.5s-24.167 9.66699 -34.5 11s-26.166 2 -47.499 2h-50zM186 339.997l-48 0.000976562v-264h50c18 0 31.5 0.333008 40.5 1s20.167 2.83398 33.5 6.50098s23 9.5 29 17.5
s11.5 19.5 16.5 34.5s7.5 33.833 7.5 56.5c0 34.667 -2.33301 62.167 -7 82.5s-13.167 35.166 -25.5 44.499s-25 15.166 -38 17.499s-32.5 3.5 -58.5 3.5z" />
    <glyph glyph-name="C" unicode="C" horiz-adv-x="417" 
d="M298 249l82.0029 0.00195312c0 -76.667 -2.33301 -125.667 -7 -147c-2.66699 -13.333 -6.33398 -25.166 -11.001 -35.499s-12.5 -22 -23.5 -35s-27 -23.167 -48 -30.5s-46.5 -11 -76.5 -11c-50 0 -88.167 12.167 -114.5 36.5s-42.5 55.166 -48.5 92.499
c-4.66699 31.333 -7 106.666 -7 225.999c0 126 2.66699 205.667 8 239c2 10.667 4 19.5 6 26.5s6.83301 18 14.5 33s17 27.167 28 36.5s27 17.833 48 25.5s45.167 11.5 72.5 11.5c34 0 65.167 -8.16699 93.5 -24.5s46.5 -42.166 54.5 -77.499
c6 -24.667 8.33301 -68.334 7 -131.001h-82v53c0 12.667 -0.166992 22.667 -0.5 30s-1.83301 16.5 -4.5 27.5s-6.33398 19.5 -11.001 25.5s-11.834 11.333 -21.501 16s-21.5 7 -35.5 7c-17.333 0 -32 -3 -44 -9s-20.5 -14.5 -25.5 -25.5s-8.33301 -19.833 -10 -26.5
s-3.16699 -15.334 -4.5 -26.001c-4 -34 -6 -104.667 -6 -212c0 -114.667 2 -186 6 -214c10 -44 37.333 -66 82 -66c40 0 65 22.333 75 67c2.66699 12 4 51.333 4 118z" />
    <glyph glyph-name="D" unicode="D" horiz-adv-x="437" 
d="M181 0l-131.002 -0.00195312v706h133c30 0 52.833 -0.666992 68.5 -2s33.834 -6 54.501 -14s37.667 -20.333 51 -37c16 -20 26 -44.5 30 -73.5s6 -87.5 6 -175.5c0 -55.333 -0.666992 -115 -2 -179c-0.666992 -41.333 -2.66699 -73.666 -6 -96.999
s-10.666 -44.666 -21.999 -63.999c-12.667 -20 -29.5 -35 -50.5 -45s-39.833 -15.667 -56.5 -17s-41.667 -2 -75 -2zM137.998 624.998v-546.999h57c32.667 0 57.334 4.16699 74.001 12.5s27.334 26.833 32.001 55.5c4 26.667 6 83 6 169c0 60 -0.333008 112.667 -1 158
c-0.666992 44.667 -2.83398 76.167 -6.50098 94.5s-12.5 32.5 -26.5 42.5c-10.667 7.33301 -23.334 11.666 -38.001 12.999s-47 2 -97 2z" />
    <glyph glyph-name="E" unicode="E" horiz-adv-x="396" 
d="M368 79v-79h-318v706h310v-79h-222v-210h195v-80h-195v-258h230z" />
    <glyph glyph-name="F" unicode="F" 
d="M139 342v-342h-89v706h311v-79h-222v-208h193v-77h-193z" />
    <glyph glyph-name="G" unicode="G" horiz-adv-x="437" 
d="M395 365l-0.00292969 -365.001h-74v49c-11.333 -11.333 -20.833 -20.166 -28.5 -26.499s-21 -13.333 -40 -21s-39.5 -11.5 -61.5 -11.5c-22.667 0 -46.334 6 -71.001 18s-43.334 33.333 -56.001 64c-4.66699 12 -8.16699 24 -10.5 36s-4.5 35.833 -6.5 71.5
s-3 84.834 -3 147.501c0 122.667 2.33301 203.334 7 242.001c2 19.333 5.83301 36.833 11.5 52.5s14.334 31.167 26.001 46.5s28.834 27.333 51.501 36s49.667 13 81 13c70 0 118 -18.667 144 -56c11.333 -16 18.166 -33.333 20.499 -52s3.5 -58.334 3.5 -119.001h-83
c0 54 -1.33301 87.333 -4 100c-7.33301 35.333 -32.666 53 -75.999 53c-20 0 -36.333 -3 -49 -9s-21.667 -15.5 -27 -28.5s-8.66602 -24.5 -9.99902 -34.5s-2.66602 -24.667 -3.99902 -44c-2.66699 -52 -4 -131.667 -4 -239c0 -14.667 1.66699 -59.334 5 -134.001
c2 -60.667 28.333 -91 79 -91c28.667 0 52.334 9.33301 71.001 28c9.33301 10 16 23 20 39s6 45 6 87v72h-104v76h186z" />
    <glyph glyph-name="H" unicode="H" horiz-adv-x="437" 
d="M387 706v-706h-88v329h-161v-329h-88v706h88v-300h161v300h88z" />
    <glyph glyph-name="I" unicode="I" horiz-adv-x="187" 
d="M137 706v-706h-87v706h87z" />
    <glyph glyph-name="J" unicode="J" horiz-adv-x="396" 
d="M262 706h86.998v-475c0 -74 -3.66699 -122 -11 -144c-21.333 -64.667 -75.333 -97 -162 -97c-43.333 0 -77.166 9.66699 -101.499 29s-40.166 43 -47.499 71c-5.33301 19.333 -8 60 -8 122h85c0 -56 2.66699 -91 8 -105c11.333 -28 32.333 -42 63 -42
c53.333 -0.666992 82 26 86 80c0.666992 9.33301 1 36.333 1 81v480z" />
    <glyph glyph-name="K" unicode="K" horiz-adv-x="417" 
d="M250 440l166 -440h-97l-126 361l-56 -85v-276h-87v706h87v-304l182 304h97z" />
    <glyph glyph-name="L" unicode="L" horiz-adv-x="354" 
d="M346 79v-79h-296v706h89v-627h207z" />
    <glyph glyph-name="M" unicode="M" horiz-adv-x="562" 
d="M512 707v-707h-81l12 639l-105 -639h-111l-106 639l14 -639h-85v707h132l99 -631l97 631h134z" />
    <glyph glyph-name="N" unicode="N" horiz-adv-x="437" 
d="M387 707v-707h-124l-138 612l12 -612h-86v707h120l143 -619l-12 619h85z" />
    <glyph glyph-name="O" unicode="O" horiz-adv-x="437" 
d="M393 363c0 -55.333 -2.00098 -118.334 -6.00098 -189.001c-1.33301 -26 -4.33301 -48.333 -9 -67s-12.667 -37.667 -24 -57s-28.833 -34.166 -52.5 -44.499s-52.834 -15.5 -87.501 -15.5c-38.667 0 -70.334 6.66699 -95.001 20c-36.667 20 -59.334 55 -68.001 105
c-4.66699 28 -7 99.333 -7 214c0 112 1.66699 189 5 231c0.666992 11.333 2 21.666 4 30.999s6.66699 22.333 14 39s16.833 30.834 28.5 42.501s28.834 22 51.501 31s49 13.5 79 13.5c28 0 52.333 -4.16699 73 -12.5s36.334 -17.666 47.001 -27.999
s19.334 -23.5 26.001 -39.5s10.834 -28.333 12.501 -37s3.16699 -19 4.5 -31c2.66699 -26.667 4 -95.334 4 -206.001zM133.999 313.999c0 -32.667 0.333984 -63.999 1.00098 -93.999v-29.5c0 -15 0.333008 -25.667 1 -32l3 -28c1.33301 -12.333 3.83301 -21.5 7.5 -27.5
s8.5 -12.667 14.5 -20s13.833 -12.5 23.5 -15.5s20.834 -4.5 33.501 -4.5c14 0 26.167 2.66699 36.5 8s18.166 11.166 23.499 17.499s9.66602 15.666 12.999 27.999s5.33301 21.833 6 28.5s1.33398 16.667 2.00098 30c4.66699 64.667 6.33398 127.334 5.00098 188.001
c0 18.667 -0.333008 46.5 -1 83.5s-1 64.5 -1 82.5c-0.666992 16 -1.5 28.5 -2.5 37.5s-3.83301 20.5 -8.5 34.5s-12.834 24.5 -24.501 31.5s-26.834 10.5 -45.501 10.5s-34.167 -3.83301 -46.5 -11.5s-21 -18.667 -26 -33s-8.16699 -25.833 -9.5 -34.5s-2.33301 -20 -3 -34
c-1.33301 -23.333 -2 -95.333 -2 -216z" />
    <glyph glyph-name="P" unicode="P" horiz-adv-x="417" 
d="M138 289v-289.001h-87v707h144c44 0 78 -3.5 102 -10.5s44.333 -22.167 61 -45.5c14.667 -20 23.667 -40.667 27 -62s5 -53.666 5 -96.999c0 -52.667 -6 -94.5 -18 -125.5s-34 -52.5 -66 -64.5c-16 -6 -33 -9.66699 -51 -11s-57 -2 -117 -2zM138 625.999
l0.000976562 -258.999h59c38.667 0 65.334 5.33301 80.001 16c12 9.33301 19.333 20.833 22 34.5s4 36.167 4 67.5c0 40.667 -1.83301 69.667 -5.5 87s-12.5 30.333 -26.5 39c-10.667 7.33301 -23.334 11.666 -38.001 12.999s-46.334 2 -95.001 2z" />
    <glyph glyph-name="Q" unicode="Q" horiz-adv-x="437" 
d="M402 -61l-49.001 -52l-106 104c-2.66699 0 -6.5 -0.166992 -11.5 -0.5s-9.5 -0.5 -13.5 -0.5c-16 0 -30 0.666992 -42 2s-26.667 4.5 -44 9.5s-32.5 14 -45.5 27s-23.167 29.5 -30.5 49.5c-10.667 29.333 -16 101.666 -16 216.999c0 144 1.66699 232.333 5 265
c1.33301 12 2.83301 22.5 4.5 31.5s6.33398 22.167 14.001 39.5s17.334 31.5 29.001 42.5s28.834 21 51.501 30s49.334 13.5 80.001 13.5c59.333 0 102.666 -17.667 129.999 -53c15.333 -20.667 25.5 -46.667 30.5 -78s7.5 -81.666 7.5 -150.999
c0 -62 -1.66699 -137 -5 -225c-0.666992 -25.333 -1.83398 -45.333 -3.50098 -60s-4.83398 -32 -9.50098 -52s-12.167 -37 -22.5 -51s-23.833 -25.667 -40.5 -35zM133.999 363c0 -129.333 0.999023 -202.666 2.99902 -219.999
c0.666992 -8.66699 1.83398 -16.334 3.50098 -23.001s5 -15.167 10 -25.5s13.333 -18.333 25 -24s26.167 -8.5 43.5 -8.5c18 0 32.833 3.33301 44.5 10s20 16.667 25 30s8.33301 24.833 10 34.5s2.83398 22.5 3.50098 38.5c2.66699 66.667 4 129.334 4 188.001
c0 88.667 -0.333008 144 -1 166c-0.666992 14 -1.5 25.667 -2.5 35s-3.83301 21 -8.5 35s-13 24.833 -25 32.5s-27 11.5 -45 11.5c-18.667 0 -34 -3.33301 -46 -10s-20.833 -16.834 -26.5 -30.501s-9.33398 -25 -11.001 -34s-3.16699 -21.833 -4.5 -38.5
c-1.33301 -17.333 -2 -73 -2 -167z" />
    <glyph glyph-name="R" unicode="R" horiz-adv-x="437" 
d="M296 319l127 -319.002h-93l-120 309h-73v-309h-87v706h154c22 0 40.667 -1 56 -3s31.833 -6.66699 49.5 -14s32 -17.666 43 -30.999s20.167 -32.166 27.5 -56.499s11 -53.5 11 -87.5c0 -52.667 -5.66699 -93.667 -17 -123c-12.667 -37.333 -38.667 -61.333 -78 -72z
M137 625.998l0.000976562 -247c52 0 84.667 0.666992 98 2s24.666 5 33.999 11c22.667 15.333 34 52.666 34 111.999c0 18.667 -0.5 33.334 -1.5 44.001s-4.16699 22.5 -9.5 35.5s-13.333 22.833 -24 29.5c-10 6 -22.167 9.66699 -36.5 11s-45.833 2 -94.5 2z" />
    <glyph glyph-name="S" unicode="S" horiz-adv-x="396" 
d="M27 166l-0.00292969 78.002h84c0 -54.667 0.333008 -86.334 1 -95.001c3.33301 -56 31.666 -84 84.999 -84c12.667 0 24.834 1.66699 36.501 5s23.334 12.166 35.001 26.499s17.5 33.166 17.5 56.499c0 25.333 -5 46.5 -15 63.5s-26.667 37.5 -50 61.5l-96 98
c-32 33.333 -53.5 62.5 -64.5 87.5s-16.5 54.5 -16.5 88.5c0 110 54.667 165 164 165c62 0 105 -19.333 129 -58c9.33301 -15.333 15 -32 17 -50s3 -55 3 -111h-77c-1.33301 50.667 -2.66602 79.667 -3.99902 87c-6 38 -30.333 57 -73 57c-49.333 0 -74 -28 -74 -84
c0 -24.667 4.5 -44.667 13.5 -60s27.5 -37.666 55.5 -66.999l89 -93c32 -34 54 -62.833 66 -86.5s18 -54.5 18 -92.5c0 -28.667 -4.33301 -53.667 -13 -75s-19.167 -37.833 -31.5 -49.5s-26.833 -21 -43.5 -28s-31.5 -11.5 -44.5 -13.5s-25.833 -3 -38.5 -3
c-51.333 0 -90.666 11.667 -117.999 35c-36.667 28.667 -55 75.667 -55 141z" />
    <glyph glyph-name="T" unicode="T" 
d="M231 627v-627h-87v627h-134v79h355v-79h-134z" />
    <glyph glyph-name="U" unicode="U" horiz-adv-x="437" 
d="M301 706l88.999 0.000976562v-476c0 -47.333 -1 -81.333 -3 -102s-6.66699 -39.334 -14 -56.001c-23.333 -54.667 -74.666 -82 -153.999 -82c-80 0 -132 25.667 -156 77c-6.66699 15.333 -11 32 -13 50s-3 53.667 -3 107v482h89v-515
c0 -16.667 0.166992 -29.167 0.5 -37.5s2 -19 5 -32s7.33301 -22.833 13 -29.5s14 -12.667 25 -18s24.833 -8 41.5 -8c18 0 32.667 2.66699 44 8s19.333 13.166 24 23.499s7.5 19 8.5 26s1.83301 16.5 2.5 28.5c0.666992 18.667 1 47.334 1 86.001v468z" />
    <glyph glyph-name="V" unicode="V" 
d="M375 706l-131 -706h-112l-132 706h91l97 -619l98 619h89z" />
    <glyph glyph-name="W" unicode="W" horiz-adv-x="625" 
d="M625 706l-119 -706h-116l-77 585l-81 -585h-116l-116 706h87l87 -619l83 619h113l81 -619l88 619h86z" />
    <glyph glyph-name="X" unicode="X" horiz-adv-x="396" 
d="M248 385l148 -385h-95l-108 306l-101 -306h-92l135 385l-126 321h97l85 -271l79 271h94z" />
    <glyph glyph-name="Y" unicode="Y" horiz-adv-x="396" 
d="M241 277v-277h-91v277l-150 429h94l104 -353l105 353h93z" />
    <glyph glyph-name="Z" unicode="Z" 
d="M353 78v-78h-331v72l232 555h-199v79h298v-67l-236 -561h236z" />
    <glyph glyph-name="bracketleft" unicode="[" horiz-adv-x="313" 
d="M294 -106v-65h-197v889h197v-63h-113v-761h113z" />
    <glyph glyph-name="backslash" unicode="\" horiz-adv-x="292" 
d="M286 0h-83l-198 706h81z" />
    <glyph glyph-name="bracketright" unicode="]" horiz-adv-x="313" 
d="M216 -171h-197v65h113v761h-113v63h197v-889z" />
    <glyph glyph-name="asciicircum" unicode="^" horiz-adv-x="729" 
d="M407 706l180 -369h-97l-124 259l-128 -259h-96l188 369h77z" />
    <glyph glyph-name="underscore" unicode="_" horiz-adv-x="500" 
d="M510 -75v-50h-520v50h520z" />
    <glyph glyph-name="grave" unicode="`" horiz-adv-x="229" 
d="M195 563h-65l-97 108h109z" />
    <glyph glyph-name="a" unicode="a" horiz-adv-x="354" 
d="M309 345v-238.994c0 -38.667 1.33301 -63.834 4 -75.501s9.33398 -21.834 20.001 -30.501h-98v60c-23.333 -46 -57.666 -69 -102.999 -69c-22.667 0 -42.667 5 -60 15c-34.667 20.667 -52 58.334 -52 113.001c0 37.333 6.33301 65.166 19 83.499
s34.334 38.166 65.001 59.499c40 26.667 66 44.5 78 53.5s28 22.833 48 41.5c0 14 -0.333008 24.667 -1 32s-2.83398 16.166 -6.50098 26.499s-9.83398 17.833 -18.501 22.5s-20.334 7 -35.001 7c-14 0 -25.5 -2.16699 -34.5 -6.5s-15.167 -10.666 -18.5 -18.999
s-5.33301 -15.5 -6 -21.5s-1 -14.333 -1 -25c0 -10 0.666992 -22.333 2 -37h-73c-2 45.333 0.333008 78.666 7 99.999c16.667 48.667 60.667 73 132 73c44 0 77.667 -12.333 101 -37c14.667 -14.667 23.5 -29.834 26.5 -45.501s4.5 -42.834 4.5 -81.501zM230 161.006
l0.000976562 124c-15.333 -14.667 -37.333 -32.667 -66 -54c-15.333 -12 -26.5 -21.333 -33.5 -28s-13.667 -17 -20 -31s-9.5 -30 -9.5 -48c0 -49.333 18 -74 54 -74c15.333 0 29.666 5 42.999 15c21.333 16 32 48 32 96z" />
    <glyph glyph-name="b" unicode="b" 
d="M118 45l0.000976562 -45h-74v706h79v-247c26 33.333 58.667 50 98 50c45.333 0 77.666 -17.667 96.999 -53c14 -24.667 21 -75 21 -151c0 -118 -3 -192 -9 -222c-6 -33.333 -19.833 -57 -41.5 -71s-44.5 -21 -68.5 -21c-37.333 0 -71.333 18 -102 54zM123.001 309
v-114.002c0 -39.333 0.666992 -64.666 2 -75.999c6.66699 -44 31 -66 73 -66c33.333 0 52.333 20.667 57 62c2 20.667 3 66.334 3 137.001c0 86.667 -3.66699 140.667 -11 162c-8.66699 24 -26 36 -52 36c-14 0 -27.667 -4.33301 -41 -13s-22.333 -23 -27 -43
c-2.66699 -10 -4 -38.333 -4 -85z" />
    <glyph glyph-name="c" unicode="c" horiz-adv-x="354" 
d="M244 186l75.999 0.00488281c0 -24.667 -0.333008 -43.5 -1 -56.5s-3.5 -29.833 -8.5 -50.5s-12.333 -36.334 -22 -47.001s-24 -20.167 -43 -28.5s-42.5 -12.5 -70.5 -12.5c-68.667 0 -111 26.333 -127 79c-8 26.667 -12 82.667 -12 168c0 26 0.166992 47 0.5 63
s1.16602 34 2.49902 54s3.33301 35.833 6 47.5s6.33398 24.167 11.001 37.5s10.667 23.5 18 30.5s16 13.833 26 20.5s22 11.334 36 14.001s29.667 4 47 4c26.667 0 49 -3.83301 67 -11.5s31.5 -16.334 40.5 -26.001s15.833 -24.334 20.5 -44.001
s7.33398 -36.167 8.00098 -49.5s1 -33 1 -59h-76c0 22 -0.166992 37.833 -0.5 47.5s-1.5 21 -3.5 34s-5.16699 22.167 -9.5 27.5s-10.5 10 -18.5 14s-18.333 6 -31 6c-29.333 0 -47.333 -11.333 -54 -34s-10 -72.334 -10 -149.001c0 -60.667 0.333008 -105.334 1 -134.001
c0.666992 -13.333 1.66699 -24.333 3 -33s7 -18.167 17 -28.5s24 -15.5 42 -15.5c27.333 0 44.833 10.167 52.5 30.5s11.5 54.166 11.5 101.499z" />
    <glyph glyph-name="d" unicode="d" 
d="M331 706v-706h-75v53c-24 -41.333 -59 -62 -105 -62c-12 0 -22.333 1.33301 -31 4c-16 4 -29.333 11 -40 21s-18.834 21.167 -24.501 33.5s-10 30 -13 53s-4.83301 44.167 -5.5 63.5s-1 46.333 -1 81c0 93.333 4 153 12 179c7.33301 24.667 20.333 44.667 39 60
s41.334 23 68.001 23c39.333 0 71 -16.333 95 -49v246h81zM252 248c1.33301 30 1.33105 57.167 -0.00195312 81.5s-3.83301 45.166 -7.5 62.499s-10.667 30.666 -21 39.999s-24.166 14 -41.499 14c-14 0 -25.5 -3 -34.5 -9s-15.5 -15.167 -19.5 -27.5s-6.5 -22.5 -7.5 -30.5
s-1.83301 -19.333 -2.5 -34c-1.33301 -36 -2 -81 -2 -135c0 -32 0.666992 -58.333 2 -79c0.666992 -6.66699 1.16699 -11.167 1.5 -13.5s1.33301 -7.5 3 -15.5s3.83398 -14 6.50098 -18s6.16699 -8.66699 10.5 -14s10.166 -9.33301 17.499 -12s15.666 -4 24.999 -4
c13.333 0 24.333 2.83301 33 8.5s15.334 12.834 20.001 21.501s8.16699 21.834 10.5 39.501s3.83301 34.667 4.5 51s1.33398 38.833 2.00098 67.5v6z" />
    <glyph glyph-name="e" unicode="e" horiz-adv-x="354" 
d="M244 155l73.998 -0.00390625c0 -39.333 -3 -67.666 -9 -84.999c-19.333 -52.667 -63.333 -79 -132 -79c-64.667 0 -107.334 25.667 -128.001 77c-3.33301 10 -5.83301 19.333 -7.5 28s-3 29.167 -4 61.5s-1.5 80.833 -1.5 145.5c0 25.333 0.666992 46.333 2 63
s4.5 34.834 9.5 54.501s12.333 35.334 22 47.001s23.334 21.334 41.001 29.001s38.834 11.5 63.501 11.5c82.667 0 129.334 -36.333 140.001 -109c2.66699 -16.667 4 -71.667 4 -165h-201c0 -66 0.333008 -102 1 -108c4.66699 -47.333 25.667 -71 63 -71
c26 0 43 8.66699 51 26s12 42 12 74zM116.998 298.996l126.002 0.000976562v62c-0.666992 10.667 -1.33398 19.167 -2.00098 25.5s-2.83398 15.166 -6.50098 26.499s-10 19.833 -19 25.5s-20.5 8.5 -34.5 8.5c-30 0 -49.333 -14 -58 -42c-4 -12.667 -6 -48 -6 -106z" />
    <glyph glyph-name="f" unicode="f" horiz-adv-x="229" 
d="M143 440l-0.000976562 -440h-79v440h-59v61h59v53c0 18 0.333008 32 1 42s3 23.333 7 40s9.83301 29.5 17.5 38.5s19.334 17 35.001 24s34.834 10.5 57.501 10.5c13.333 0 27.333 -2 42 -6v-69c-12 4 -22.667 6 -32 6c-12 0 -21.5 -2 -28.5 -6
s-11.833 -10.833 -14.5 -20.5s-4.33398 -18.5 -5.00098 -26.5s-1 -20.333 -1 -37v-49h81v-61h-81z" />
    <glyph glyph-name="g" unicode="g" 
d="M257 500l75.0029 -0.000976562v-474c0 -56 -3 -93.333 -9 -112c-18 -54.667 -67 -82 -147 -82c-36.667 0 -68.5 9.83301 -95.5 29.5s-40.5 52.5 -40.5 98.5h73c0.666992 -8 1.5 -14.5 2.5 -19.5s3.5 -11.667 7.5 -20s10.833 -14.666 20.5 -18.999s22.167 -6.5 37.5 -6.5
c13.333 0 24.666 2.16699 33.999 6.5s16.333 9.33301 21 15s8.16699 13.667 10.5 24s3.66602 18.833 3.99902 25.5s0.5 16 0.5 28v58c-25.333 -36.667 -59 -55 -101 -55c-50.667 0 -84.334 22 -101.001 66c-6.66699 17.333 -10.667 37.5 -12 60.5s-2 68.5 -2 136.5
c0 79.333 3 131.333 9 156c13.333 62 51.666 93 114.999 93c44.667 0 77.334 -18 98.001 -54v45zM253.003 242.999c0 56.667 -0.998047 99 -2.99805 127c-2 54.667 -24.667 82 -68 82c-10.667 0 -19.834 -1.66699 -27.501 -5s-13.834 -9 -18.501 -17s-8.5 -15.667 -11.5 -23
s-5 -18.166 -6 -32.499s-1.66699 -25.833 -2 -34.5s-0.5 -21.667 -0.5 -39c0 -92.667 1 -150.667 3 -174c2.66699 -46 23 -69 61 -69s61 20.333 69 61c2.66699 15.333 4 56.666 4 123.999z" />
    <glyph glyph-name="h" unicode="h" 
d="M331 344l-0.000976562 -343.998h-79v300c0 20.667 -0.166992 35.667 -0.5 45s-1 21 -2 35s-2.83301 24 -5.5 30s-6.16699 12.333 -10.5 19s-10.166 11.167 -17.499 13.5s-16 3.5 -26 3.5c-10.667 0 -20 -1.5 -28 -4.5s-14.333 -8.33301 -19 -16s-8.5 -15 -11.5 -22
s-5 -17.333 -6 -31s-1.66699 -24.834 -2 -33.501s-0.5 -21.667 -0.5 -39v-300h-79v706h79v-251c8.66699 10.667 15.5 18.667 20.5 24s15 11.666 30 18.999s31.5 11 49.5 11c34.667 0 61.667 -12 81 -36c18 -22 27 -65 27 -129z" />
    <glyph glyph-name="i" unicode="i" horiz-adv-x="167" 
d="M123 501v-501h-79v501h79zM123 691v-103h-79v103h79z" />
    <glyph glyph-name="j" unicode="j" horiz-adv-x="167" 
d="M44 501l79.002 -0.000976562v-466c0 -67.333 -1.66699 -108.666 -5 -123.999c-6.66699 -29.333 -20.334 -49.833 -41.001 -61.5s-50 -17.5 -88 -17.5c-8.66699 0 -20.334 0.666992 -35.001 2v65h16h31.5c6.33301 0 13 2 20 6s11.5 7.5 13.5 10.5s4 11 6 24s3 24.667 3 35
v54.5v472zM123.002 690.999v-103h-79v103h79z" />
    <glyph glyph-name="k" unicode="k" horiz-adv-x="354" 
d="M227 306l129 -306h-85l-98 232l-50 -70v-162h-80v706h80v-434l148 228h92z" />
    <glyph glyph-name="l" unicode="l" horiz-adv-x="167" 
d="M124 706v-706h-81v706h81z" />
    <glyph glyph-name="m" unicode="m" horiz-adv-x="583" 
d="M540 326l-0.000976562 -325.999h-81v327c0 39.333 -1.66699 65.333 -5 78c-8.66699 28 -28 42 -58 42c-12 0 -22.333 -2.66699 -31 -8s-15.167 -11.333 -19.5 -18s-7.5 -16.334 -9.5 -29.001s-3.16699 -23 -3.5 -31s-0.5 -19 -0.5 -33v-328h-81v327
c0 17.333 -0.166992 30.333 -0.5 39s-1.5 19.167 -3.5 31.5s-5.16699 21.333 -9.5 27s-10.5 10.834 -18.5 15.501s-18 7 -30 7c-12.667 0 -23.334 -2.5 -32.001 -7.5s-15 -10.833 -19 -17.5s-7.16699 -16.334 -9.5 -29.001s-3.66602 -23.167 -3.99902 -31.5
s-0.5 -20.166 -0.5 -35.499v-326h-81v500h76v-50c29.333 39.333 65 59 107 59c44 0 76.667 -19.667 98 -59c8.66699 11.333 15.834 20 21.501 26s16.167 13 31.5 21s32.333 12 51 12c31.333 0 57.333 -10.333 78 -31c15.333 -15.333 24.833 -32.833 28.5 -52.5
s5.5 -52.834 5.5 -99.501z" />
    <glyph glyph-name="n" unicode="n" 
d="M331 352l-0.00292969 -351.999h-81v326c0 18.667 -0.166992 32.334 -0.5 41.001s-1.5 19.167 -3.5 31.5s-5 21.166 -9 26.499s-9.83301 10.166 -17.5 14.499s-17.167 6.5 -28.5 6.5c-12.667 0 -23.5 -2.66699 -32.5 -8s-15.667 -11.5 -20 -18.5
s-7.66602 -17 -9.99902 -30s-3.66602 -23.5 -3.99902 -31.5s-0.5 -19.667 -0.5 -35v-323h-80v500h76v-46c30.667 36.667 66.334 55 107.001 55c20 0 36.833 -3.5 50.5 -10.5s24 -15 31 -24s12.333 -21.833 16 -38.5s5.66699 -30.167 6 -40.5s0.5 -24.833 0.5 -43.5z" />
    <glyph glyph-name="o" unicode="o" horiz-adv-x="354" 
d="M319 244c0 -81.333 -3.66699 -136.003 -11 -164.003c-14.667 -59.333 -58.667 -89 -132 -89c-58.667 0 -98.667 19.333 -120 58c-9.33301 16.667 -15 35.834 -17 57.501s-3 65.167 -3 130.5c0 93.333 3.66699 154.333 11 183c16 59.333 60 89 132 89
c60.667 0 101.667 -21.667 123 -65c8 -17.333 12.833 -35.666 14.5 -54.999s2.5 -67.666 2.5 -144.999zM235 244.997c0 67.333 -0.334961 109.668 -1.00195 127.001c-1.33301 47.333 -19.333 71 -54 71c-10 0 -18.5 -1.16699 -25.5 -3.5s-12.667 -7 -17 -14
s-7.66602 -13.5 -9.99902 -19.5s-4 -16.167 -5 -30.5s-1.66699 -26.5 -2 -36.5s-0.5 -26 -0.5 -48c0 -74.667 0.333008 -123.334 1 -146.001c0 -12 0.333008 -21 1 -27s1.83398 -13.833 3.50098 -23.5s4.33398 -17 8.00098 -22s9 -9.5 16 -13.5s15.5 -6 25.5 -6
c27.333 0 44.666 13.667 51.999 41c5.33301 20.667 8 71 8 151z" />
    <glyph glyph-name="p" unicode="p" 
d="M126 41l-0.00195312 -199.998h-83v659h80v-48c8.66699 11.333 15.834 20 21.501 26s15.834 12.667 30.501 20s31 11 49 11c44 0 76 -18.667 96 -56c12.667 -24.667 19 -77.334 19 -158.001c0 -94.667 -2 -158.334 -6 -191.001c-10.667 -75.333 -48.667 -113 -114 -113
c-36.667 0 -67.667 16.667 -93 50zM254.998 261.002c0 72.667 -1.99902 117.666 -5.99902 134.999c-6.66699 32.667 -25 49 -55 49c-40 0 -61.667 -29.333 -65 -88c-2 -15.333 -3 -58.666 -3 -129.999c0 -74 5 -121 15 -141c11.333 -23.333 29.666 -35 54.999 -35
c34 0 52.333 23 55 69c2.66699 34 4 81 4 141z" />
    <glyph glyph-name="q" unicode="q" 
d="M331 500l-0.00292969 -659.001h-79v209c-24.667 -39.333 -58 -59 -100 -59c-28.667 0 -52.5 9 -71.5 27s-31.5 41 -37.5 69c-4.66699 26 -7 77.667 -7 155c0 92.667 2.33301 150 7 172c6.66699 29.333 20.5 52.5 41.5 69.5s44.5 25.5 70.5 25.5
c18.667 0 35.334 -4 50.001 -12s24.834 -15.667 30.501 -23s11.834 -16.666 18.501 -27.999v54h77zM252.997 252.999c0 43.333 -1.33301 81.668 -4 115.001c-2.66699 51.333 -25.667 77 -69 77c-16.667 0 -29.667 -4.83301 -39 -14.5s-14.666 -18 -15.999 -25
s-2.66602 -16.5 -3.99902 -28.5c-1.33301 -16.667 -2 -62 -2 -136c0 -82.667 3.66699 -133.667 11 -153c8 -22.667 25 -34 51 -34c12 0 22.167 1.66699 30.5 5s15.166 9.83301 20.499 19.5s9.33301 18.667 12 27s4.66699 22 6 41s2.16602 34.667 2.49902 47
s0.5 32.166 0.5 59.499z" />
    <glyph glyph-name="r" unicode="r" horiz-adv-x="250" 
d="M126 239v-238.998h-82v500h77v-94c6.66699 14.667 12.5 26.167 17.5 34.5s12.833 19 23.5 32s24 22.5 40 28.5s34 8.33301 54 7v-83c-16.667 0 -29.667 -0.5 -39 -1.5s-21 -4.66699 -35 -11s-25.333 -15.833 -34 -28.5c-8 -12.667 -13.667 -28.834 -17 -48.501
s-5 -51.834 -5 -96.501z" />
    <glyph glyph-name="s" unicode="s" horiz-adv-x="313" 
d="M161 203l-61 54.001c-16 14 -27.833 25.333 -35.5 34s-15.167 21 -22.5 37s-11 33.667 -11 53c0 46.667 12.5 79.667 37.5 99s55.167 29 90.5 29c42.667 0 74.334 -11 95.001 -33c19.333 -20.667 29 -61.667 29 -123h-71c0 33.333 -3 55.666 -9 66.999
c-8.66699 16.667 -23.334 25 -44.001 25c-16 0 -28.833 -4.66699 -38.5 -14s-14.5 -23 -14.5 -41c0 -15.333 4.5 -28.666 13.5 -39.999s25.167 -26.666 48.5 -45.999l56 -48c14.667 -12 26 -22.167 34 -30.5s16.167 -21.5 24.5 -39.5s12.5 -37.667 12.5 -59
c0 -51.333 -18 -89 -54 -113c-22 -15.333 -52.333 -23 -91 -23c-61.333 0 -101 21.667 -119 65c-8 18.667 -12.667 57.667 -14 117h77c0 -44.667 2 -72.334 6 -83.001c9.33301 -23.333 28 -35 56 -35c16 0 29.5 5.33301 40.5 16s16.5 25.667 16.5 45
c0 18 -3.66699 32.667 -11 44s-21 25.666 -41 42.999z" />
    <glyph glyph-name="t" unicode="t" horiz-adv-x="229" 
d="M221 501l0.00292969 -60.998h-73v-318c0 -13.333 0.666992 -23.833 2 -31.5s5.66602 -15 12.999 -22s17.666 -10.5 30.999 -10.5c8 0 17.333 1.33301 28 4v-65c-14.667 -4 -29.334 -6 -44.001 -6c-54.667 0 -88.667 15.667 -102 47
c-4.66699 11.333 -7.5 23.166 -8.5 35.499s-1.5 42.166 -1.5 89.499v277h-60v61h62v134h80v-134h73z" />
    <glyph glyph-name="u" unicode="u" 
d="M331 500l-0.000976562 -500.001h-77v46c-29.333 -36.667 -64.666 -55 -105.999 -55c-37.333 0 -64.333 13 -81 39c-10 15.333 -16.333 33.333 -19 54s-4 54.334 -4 101.001v315h80v-328l1 -48c0 -48.667 19.333 -73 58 -73c16 0 29.167 3.5 39.5 10.5
s17.333 17.833 21 32.5s6 27 7 37s1.5 24 1.5 42v327h79z" />
    <glyph glyph-name="v" unicode="v" horiz-adv-x="313" 
d="M312 500l-114 -500h-91l-107 500h87l66 -409l73 409h86z" />
    <glyph glyph-name="w" unicode="w" horiz-adv-x="521" 
d="M521 500l-98 -500h-96l-68 421l-69 -421h-97l-93 500h87l53 -428l65 428h108l65 -422l59 422h84z" />
    <glyph glyph-name="x" unicode="x" horiz-adv-x="333" 
d="M208 268l125 -268h-91l-79 198l-75 -198h-88l120 268l-104 232h93l54 -164l60 164h89z" />
    <glyph glyph-name="y" unicode="y" horiz-adv-x="333" 
d="M235 501h85.001l-86 -436c-17.333 -88 -31.333 -142 -42 -162c-13.333 -26.667 -29.833 -44.334 -49.5 -53.001s-43.167 -13 -70.5 -13h-52v69h36.5c11 0 21 1 30 3s16.667 4.83301 23 8.5s11.166 9.33398 14.499 17.001s5 17.5 5 29.5c0 14 -3.33301 34.333 -10 61
l-113 476h86l79 -403z" />
    <glyph glyph-name="z" unicode="z" horiz-adv-x="292" 
d="M281 66v-66h-272v66l188 366h-163v68h247v-68l-187 -366h187z" />
    <glyph glyph-name="braceleft" unicode="{" horiz-adv-x="354" 
d="M55 239l0.00390625 69c29.333 1.33301 50.5 11.333 63.5 30s19.5 54 19.5 106v80c0 23.333 0.5 41.833 1.5 55.5s4.16699 29.334 9.5 47.001s13.333 32.5 24 44.5c12 14 27.5 24.667 46.5 32s35.333 11.5 49 12.5s32.834 1.83301 57.501 2.5v-67
c-14.667 -1.33301 -27 -3.16602 -37 -5.49902s-18.667 -5 -26 -8s-13.333 -8.5 -18 -16.5s-8.33398 -15 -11.001 -21s-4.5 -16.333 -5.5 -31s-1.66699 -27.334 -2 -38.001s-0.5 -27.334 -0.5 -50.001c0 -24 -0.166992 -42 -0.5 -54s-1.33301 -26.833 -3 -44.5
s-4.33398 -31 -8.00098 -40s-8.5 -18.667 -14.5 -29s-14 -18.333 -24 -24s-22 -10.167 -36 -13.5v-5c14 -3.33301 26 -7.83301 36 -13.5s18.167 -13.834 24.5 -24.501s11.333 -20.5 15 -29.5s6.16699 -22.5 7.5 -40.5s2.16602 -32.667 2.49902 -44s0.5 -29 0.5 -53
c0 -26.667 0.166992 -45.667 0.5 -57s1.5 -25 3.5 -41s4.83301 -26.833 8.5 -32.5s9.33398 -12.167 17.001 -19.5s17.167 -12.166 28.5 -14.499s25.333 -4.16602 42 -5.49902v-67c-24.667 0.666992 -43.834 1.5 -57.501 2.5s-30 5.16699 -49 12.5s-34.5 18 -46.5 32
c-10.667 12.667 -18.834 28.167 -24.501 46.5s-8.83398 33.666 -9.50098 45.999s-1 29.5 -1 51.5v74c0 52.667 -5.66699 89.5 -17 110.5s-33.333 32.5 -66 34.5z" />
    <glyph glyph-name="bar" unicode="|" horiz-adv-x="229" 
d="M154 750v-1000h-80v1000h80z" />
    <glyph glyph-name="braceright" unicode="}" horiz-adv-x="354" 
d="M299 308l-0.00488281 -68.9971c-29.333 -2 -50.5 -12.333 -63.5 -31s-19.5 -54 -19.5 -106v-79c0 -23.333 -0.5 -41.833 -1.5 -55.5s-4.16699 -29.334 -9.5 -47.001s-13.333 -32.5 -24 -44.5c-12.667 -14 -28.5 -24.667 -47.5 -32s-35.167 -11.5 -48.5 -12.5
s-32.333 -1.83301 -57 -2.5v67c14.667 1.33301 27 3.16602 37 5.49902s18.667 5 26 8s13.333 8.5 18 16.5s8.33398 15 11.001 21s4.5 16.333 5.5 31s1.66699 27.334 2 38.001s0.5 27.334 0.5 50.001c0 23.333 0.166992 41.166 0.5 53.499s1.33301 27.166 3 44.499
s4.33398 30.666 8.00098 39.999s8.5 19.166 14.5 29.499s14 18.333 24 24s22 10.167 36 13.5v5c-14 3.33301 -26 7.83301 -36 13.5s-18.167 13.834 -24.5 24.501s-11.333 20.334 -15 29.001s-6.16699 22 -7.5 40s-2.16602 32.833 -2.49902 44.5s-0.5 29.5 -0.5 53.5
c0 26.667 -0.166992 45.667 -0.5 57s-1.5 25 -3.5 41s-4.83301 26.833 -8.5 32.5s-9.33398 12.167 -17.001 19.5s-17.167 12.166 -28.5 14.499s-25.333 4.16602 -42 5.49902v67c24.667 -0.666992 43.834 -1.5 57.501 -2.5s30 -5.16699 49 -12.5s34.5 -18 46.5 -32
c10.667 -12.667 18.834 -28.167 24.501 -46.5s8.83398 -33.666 9.50098 -45.999s1 -29.5 1 -51.5v-74c0 -52.667 5.66699 -89.5 17 -110.5s33.333 -32.5 66 -34.5z" />
    <glyph glyph-name="asciitilde" unicode="~" horiz-adv-x="729" 
d="M567 366l38 -72c-41.333 -52.667 -87 -79 -137 -79c-22.667 0 -55.667 10.333 -99 31c-52.667 26 -89.334 39 -110.001 39c-18 0 -32.5 -4.16699 -43.5 -12.5s-28.167 -26.5 -51.5 -54.5l-40 71l21 27c6 7.33301 14.667 16 26 26s24.333 17.667 39 23s30.334 8 47.001 8
c25.333 0 62.333 -11 111 -33c50.667 -24 84.667 -36 102 -36c32 0 64.333 20.667 97 62z" />
    <glyph glyph-name="exclamdown" unicode="&#xa1;" horiz-adv-x="208" 
d="M41 589v118h85v-118h-85zM41 223l21 292h45l19 -292v-223h-85v223z" />
    <glyph glyph-name="cent" unicode="&#xa2;" horiz-adv-x="354" 
d="M239 183l76.0059 0.000976562c-1.33301 -66.667 -8.33301 -112.667 -21 -138s-42.334 -43 -89.001 -53v-74h-53v74c-22.667 2.66699 -41.667 8.5 -57 17.5s-27 18.5 -35 28.5s-13.833 25.667 -17.5 47s-5.83398 39.5 -6.50098 54.5s-1 38.5 -1 70.5c0 16 0.5 38 1.5 66
s1.83301 52.833 2.5 74.5s1 33.167 1 34.5c2 20 6.16699 37.5 12.5 52.5s13 26.5 20 34.5s16.167 14.833 27.5 20.5s20.166 9.33398 26.499 11.001s14.833 3.5 25.5 5.5v65h53v-65c17.333 -3.33301 32.5 -8 45.5 -14s23.333 -14 31 -24s14 -19.667 19 -29
s8.5 -21.666 10.5 -36.999s3.16699 -28.5 3.5 -39.5s0.5 -25.833 0.5 -44.5h-76v43c-0.666992 12.667 -1.33398 22.5 -2.00098 29.5s-2.83398 15.667 -6.50098 26s-9.66699 18 -18 23s-19.5 7.5 -33.5 7.5c-36.667 0 -57 -24.333 -61 -73c-2 -34 -3 -91.333 -3 -172
c0 -50.667 0.666992 -81.334 2 -92.001c3.33301 -40 23 -60 59 -60c12 0 22.167 2.5 30.5 7.5s14.666 10.667 18.999 17s7.5 16.166 9.5 29.499s3.16699 24.666 3.5 33.999s0.5 23.333 0.5 42z" />
    <glyph glyph-name="sterling" unicode="&#xa3;" horiz-adv-x="458" 
d="M344 380l-0.00488281 -75.001h-112c14 -52 21 -94.667 21 -128c0 -29.333 -4.66699 -56 -14 -80c23.333 -17.333 45 -26 65 -26c21.333 0 35.5 9 42.5 27s10.5 43.333 10.5 76c0 20 -1 39.667 -3 59h81c0 -5.33301 0.166992 -13.166 0.5 -23.499s0.5 -18.833 0.5 -25.5
c0 -15.333 -0.166992 -27.833 -0.5 -37.5s-1.5 -23.334 -3.5 -41.001s-5.83301 -32.167 -11.5 -43.5s-12.667 -23.166 -21 -35.499s-20 -21.5 -35 -27.5s-32.167 -9 -51.5 -9c-36.667 0 -75 16 -115 48c-27.333 -30.667 -60 -46 -98 -46c-29.333 0 -51.5 8.83301 -66.5 26.5
s-22.5 37.167 -22.5 58.5c0 22.667 7.83301 42.5 23.5 59.5s37.167 25.5 64.5 25.5c21.333 0 43.666 -8 66.999 -24c1.33301 16 2 26.667 2 32c0 35.333 -9.66699 80.333 -29 135h-98v75h74c-14 38 -23.333 67.167 -28 87.5s-7 46.166 -7 77.499
c0 16.667 0.833008 31.5 2.5 44.5s5.83398 27.833 12.501 44.5s16 30.667 28 42s29.333 21 52 29s49.334 12 80.001 12c22 0 41.333 -2.33301 58 -7s30.334 -11.167 41.001 -19.5s19.834 -18.166 27.501 -29.499s13.167 -23.833 16.5 -37.5s6.16602 -28 8.49902 -43
s3.33301 -30.333 3 -46s-0.5 -31.167 -0.5 -46.5h-87c0 26 -0.166992 45 -0.5 57s-1.66602 26 -3.99902 42s-6.16602 27.167 -11.499 33.5s-12.666 12 -21.999 17s-21.333 7.5 -36 7.5c-24.667 0 -44 -8.66699 -58 -26s-21 -41 -21 -71c0 -54 13.667 -110 41 -168h134z
M139.995 86.999c-15.333 11.333 -28.001 17 -38.001 17c-8.66699 0 -15.167 -1.5 -19.5 -4.5s-6.66602 -5.5 -6.99902 -7.5s-0.5 -5 -0.5 -9c0 -13.333 8.66699 -20 26 -20c12 0 25 8 39 24z" />
    <glyph glyph-name="currency" unicode="&#xa4;" horiz-adv-x="667" 
d="M624 570l-74.999 -75.002c12 -20 20.667 -35 26 -45s10.666 -24.667 15.999 -44s8 -40.666 8 -63.999c0 -25.333 -2.66699 -48.333 -8 -69s-10.833 -36.167 -16.5 -46.5s-14.5 -24.833 -26.5 -43.5l76 -77l-61 -59l-75 76c-19.333 -12 -34.5 -20.833 -45.5 -26.5
s-26.333 -11 -46 -16s-41.5 -7.5 -65.5 -7.5c-23.333 0 -45.166 2.83301 -65.499 8.5s-35.833 11.334 -46.5 17.001s-24.334 14.167 -41.001 25.5l-76 -76l-60 60l76 75c-12 18.667 -20.833 33.167 -26.5 43.5s-11.167 25.666 -16.5 45.999s-8 42.833 -8 67.5
c0 56.667 17 108.334 51 155.001l-75 75l60 60l75 -75c49.333 34 101 51 155 51c24 0 46 -2.66699 66 -8s35.167 -10.833 45.5 -16.5s24.833 -14.5 43.5 -26.5l76 75zM519.001 339.998c0 57.333 -18.833 103.001 -56.5 137.001s-79.5 51 -125.5 51
c-56 0 -101.667 -18.167 -137 -54.5s-53 -79.833 -53 -130.5c0 -58.667 18.833 -105.334 56.5 -140.001s80.167 -52 127.5 -52c54 0 98.833 18 134.5 54s53.5 81 53.5 135z" />
    <glyph glyph-name="yen" unicode="&#xa5;" horiz-adv-x="396" 
d="M241 190v-190h-88v190h-117v57h117c0 24.667 -3 42.667 -9 54h-108v58h86l-122 347h95l103 -358l103 358h94l-124 -347h88v-58h-109c-6 -11.333 -9 -29.333 -9 -54h118v-57h-118z" />
    <glyph glyph-name="brokenbar" unicode="&#xa6;" horiz-adv-x="229" 
d="M75 -175v350h80v-350h-80zM155 325h-80v350h80v-350z" />
    <glyph glyph-name="section" unicode="&#xa7;" horiz-adv-x="417" 
d="M32 99l87.002 -0.00390625v-37.5c0 -12.333 1.33301 -23.833 4 -34.5s6.66699 -20.167 12 -28.5s13.666 -14.833 24.999 -19.5s25.333 -7 42 -7c53.333 0 80 29 80 87c0 36.667 -16 64.667 -48 84c-10.667 5.33301 -49 22.666 -115 51.999c-14 6 -25 11.5 -33 16.5
s-17.833 12.333 -29.5 22s-20.334 21.834 -26.001 36.501s-8.5 31.334 -8.5 50.001c0 44 22.333 87.333 67 130c-26 28 -39 62.667 -39 104c0 21.333 1.66699 40 5 56s10.166 32.5 20.499 49.5s26.833 30.167 49.5 39.5s51.334 14 86.001 14
c27.333 0 50.833 -3.33301 70.5 -10s34.667 -14.667 45 -24s18.5 -21.333 24.5 -36s9.66699 -27.5 11 -38.5s2 -23.833 2 -38.5c0 -4 -0.166992 -10.333 -0.5 -19s-0.5 -15.334 -0.5 -20.001h-80c0.666992 27.333 0.666992 44.333 0 51c-4.66699 42.667 -29.667 64 -75 64
c-50 0 -75 -26.333 -75 -79c0 -17.333 3.66699 -32.166 11 -44.499s23 -24.166 47 -35.499c8 -4 32 -14.333 72 -31c22 -10 38.167 -17.667 48.5 -23s22.833 -13.5 37.5 -24.5s25 -23.833 31 -38.5s9 -31.667 9 -51c0 -47.333 -21.333 -92.333 -64 -135
c9.33301 -9.33301 16.666 -18 21.999 -26s10.333 -20 15 -36s7 -34.333 7 -55c0 -30.667 -4.66699 -57.167 -14 -79.5s-20 -39 -32 -50s-27.167 -19.5 -45.5 -25.5s-33.166 -9.5 -44.499 -10.5s-24.333 -1.5 -39 -1.5c-66.667 0 -113 20.333 -139 61
c-10.667 16.667 -17.167 34.334 -19.5 53.001s-3.5 48.334 -3.5 89.001zM281.002 211.996c25.333 24 37.9971 48.998 37.9971 74.998c0 22.667 -7.5 39.834 -22.5 51.501s-41.167 24.834 -78.5 39.501c-20 8 -49.333 20.667 -88 38c-26 -22.667 -39 -46.334 -39 -71.001
c0 -13.333 4.33301 -25.666 13 -36.999s16.834 -19.333 24.501 -24s17.834 -10 30.501 -16c70.667 -31.333 111.334 -50 122.001 -56z" />
    <glyph glyph-name="dieresis" unicode="&#xa8;" horiz-adv-x="229" 
d="M231 666v-103h-78v103h78zM76 666v-103h-78v103h78z" />
    <glyph glyph-name="copyright" unicode="&#xa9;" horiz-adv-x="833" 
d="M557 258l56.002 -49.0029c-50.667 -60.667 -113.334 -91 -188.001 -91c-71.333 0 -128.833 22.833 -172.5 68.5s-65.5 100.834 -65.5 165.501c0 70 22.5 127.5 67.5 172.5s101.167 67.5 168.5 67.5c33.333 0 64 -5.83301 92 -17.5s47.5 -22.5 58.5 -32.5
s24.167 -23.333 39.5 -40l-56 -53c-14.667 14.667 -26.334 25.834 -35.001 33.501s-22 15.334 -40 23.001s-37.333 11.5 -58 11.5c-42.667 0 -79.834 -14.667 -111.501 -44s-47.5 -69.333 -47.5 -120c0 -47.333 15.667 -85.833 47 -115.5s68.666 -44.5 111.999 -44.5
c22.667 0 43.834 4.33301 63.501 13s33.334 16.5 41.001 23.5s17.167 16.5 28.5 28.5zM772.002 351.997c0 -97.333 -34 -180.831 -102 -250.498s-152.667 -104.5 -254 -104.5c-96.667 0 -180 33.667 -250 101s-105 152.666 -105 255.999c0 100 34.667 184.167 104 252.5
s153 102.5 251 102.5c100.667 0 185.167 -34.333 253.5 -103s102.5 -153.334 102.5 -254.001zM740.002 351.999c0 91.333 -30.832 168.333 -92.499 231s-138.167 94 -229.5 94s-168.333 -31.667 -231 -95s-94 -139.333 -94 -228c0 -92 31.667 -169.167 95 -231.5
s139.666 -93.5 228.999 -93.5c90.667 0 167.167 31.5 229.5 94.5s93.5 139.167 93.5 228.5z" />
    <glyph glyph-name="ordfeminine" unicode="&#xaa;" horiz-adv-x="229" 
d="M196 603l0.00195312 -155.002c0 -22 7 -40.667 21 -56h-76v21c-13.333 -16.667 -31.666 -25 -54.999 -25c-22.667 0 -40.334 8 -53.001 24s-19 35.667 -19 59c0 16.667 3.5 31.667 10.5 45s14.167 23.166 21.5 29.499s18.666 14.833 33.999 25.5
c20.667 14 39.667 27.667 57 41c-0.666992 12 -1.33398 20.5 -2.00098 25.5s-3.16699 10 -7.5 15s-11.166 7.5 -20.499 7.5c-8.66699 0 -15.334 -2.5 -20.001 -7.5s-7.33398 -9.66699 -8.00098 -14s-1 -10.5 -1 -18.5c0 -10.667 0.333008 -19 1 -25h-54v32
c0 7.33301 0.166992 13.5 0.5 18.5s2 12.167 5 21.5s7.33301 16.833 13 22.5s14.334 10.834 26.001 15.501s25.5 7 41.5 7s29.667 -2.5 41 -7.5s19.833 -10.667 25.5 -17s10 -15.166 13 -26.499s4.66699 -20.666 5 -27.999s0.5 -17.333 0.5 -30zM139.002 552.998
c-29.333 -22.667 -47.501 -38.168 -54.501 -46.501s-10.5 -20.5 -10.5 -36.5c0 -13.333 4.33301 -23.166 13 -29.499s18 -6.83301 28 -1.5c10.667 5.33301 17.334 14 20.001 26s4 41.333 4 88z" />
    <glyph glyph-name="guillemotleft" unicode="&#xab;" horiz-adv-x="354" 
d="M162 198v-118l-140 158v86l140 156v-116l-74 -83zM324 198v-118l-140 158v86l140 156v-116l-74 -83z" />
    <glyph glyph-name="logicalnot" unicode="&#xac;" horiz-adv-x="667" 
d="M587 0v252h-587v79h667v-331h-80z" />
    <glyph glyph-name="registered" unicode="&#xae;" horiz-adv-x="833" 
d="M266 580l146 -0.000976562c50 0 85 -3.66699 105 -11c23.333 -8 41.166 -21.667 53.499 -41s18.5 -40.333 18.5 -63c0 -55.333 -30.667 -90.666 -92 -105.999c20.667 -8.66699 35.5 -20 44.5 -34s15.5 -34 19.5 -60c9.33301 -62 20.666 -106.667 33.999 -134h-91
c-8 16 -16 48.667 -24 98c-7.33301 48 -17.666 77.333 -30.999 88s-47.666 16 -102.999 16v-202h-80v449zM347 517.999v-121.001h66c12 0 21.833 0.333008 29.5 1s17.5 2.83398 29.5 6.50098s21.167 10 27.5 19s9.5 20.833 9.5 35.5c0 25.333 -10.667 43 -32 53
c-10.667 4 -37 6 -79 6h-51zM773 351.998c0 -96.667 -34 -179.999 -102 -249.999s-153 -105 -255 -105c-95.333 0 -178.333 33.667 -249 101s-106 152.333 -106 255c0 100.667 34.833 185.167 104.5 253.5s153.167 102.5 250.5 102.5c100 0 184.5 -34.333 253.5 -103
s103.5 -153.334 103.5 -254.001zM741 351.999c0 90.667 -30.999 167.502 -92.999 230.502s-139.333 94.5 -232 94.5c-88.667 0 -164.667 -31.333 -228 -94s-95 -139.334 -95 -230.001s31.667 -167.334 95 -230.001s139.666 -94 228.999 -94c92 0 169 31.833 231 95.5
s93 139.5 93 227.5z" />
    <glyph glyph-name="macron" unicode="&#xaf;" horiz-adv-x="229" 
d="M222 639v-64h-216v64h216z" />
    <glyph glyph-name="macron" unicode="&#x2c9;" horiz-adv-x="229" 
d="M222 639v-64h-216v64h216z" />
    <glyph glyph-name="degree" unicode="&#xb0;" horiz-adv-x="354" 
d="M177 755c44.667 0 82.667 -15.833 114 -47.5s47 -69.5 47 -113.5c0 -44.667 -15.667 -82.667 -47 -114s-69.333 -47 -114 -47s-82.834 15.667 -114.501 47s-47.5 69.333 -47.5 114s15.833 82.667 47.5 114s69.834 47 114.501 47zM177 675c-22 0 -40.667 -7.66699 -56 -23
s-23 -34 -23 -56s7.66699 -40.667 23 -56s34 -23 56 -23s40.667 7.66699 56 23s23 34 23 56s-7.83301 40.667 -23.5 56s-34.167 23 -55.5 23z" />
    <glyph glyph-name="plusminus" unicode="&#xb1;" horiz-adv-x="500" 
d="M291 342v-181h-79v181h-181v79h181v179h79v-179h178v-79h-178zM469 79v-79h-438v79h438z" />
    <glyph glyph-name="twosuperior" unicode="&#xb2;" horiz-adv-x="250" 
d="M224 325v-60.001h-202v60l89 151c20 33.333 32.333 56.333 37 69s7 30.334 7 53.001c0 34 -11 51 -33 51c-10 0 -17.5 -3.16699 -22.5 -9.5s-7.83301 -12.333 -8.5 -18s-1 -14.167 -1 -25.5v-56h-63v60c0 74.667 31.333 112 94 112
c22.667 0 41.334 -4.83301 56.001 -14.5s24.667 -22.667 30 -39s8.66602 -28.833 9.99902 -37.5s2 -17.667 2 -27c0 -44 -13.333 -88 -40 -132l-84 -137h129z" />
    <glyph glyph-name="threesuperior" unicode="&#xb3;" horiz-adv-x="250" 
d="M91 571l-63 -0.00195312c0 18.667 0.166992 32.667 0.5 42s2 21.5 5 36.5s7.5 26.167 13.5 33.5s15.333 14 28 20s28.334 9 47.001 9c63.333 0 95 -39.333 95 -118c0 -32 -2.16699 -53.333 -6.5 -64s-13.166 -21 -26.499 -31c15.333 -8.66699 25.833 -20.167 31.5 -34.5
s8.5 -44.166 8.5 -89.499c0 -7.33301 -0.166992 -14.166 -0.5 -20.499s-2.33301 -15.833 -6 -28.5s-8.83398 -23.5 -15.501 -32.5s-16.834 -17 -30.501 -24s-30.167 -10.5 -49.5 -10.5c-40 0 -68.333 11.667 -85 35c-8 10.667 -12.833 21.834 -14.5 33.501
s-2.5 38.167 -2.5 79.5h63c-1.33301 -34.667 -0.166016 -57.834 3.50098 -69.501s14.167 -17.5 31.5 -17.5c8 0 14.333 1.16699 19 3.5s8.5 5.16602 11.5 8.49902s5 9.33301 6 18s1.66699 16.167 2 22.5s0.5 17.166 0.5 32.499c0 22 -3 37.667 -9 47s-19 14 -39 14
c-2 0 -6 -0.166992 -12 -0.5s-10 -0.5 -12 -0.5v63c4 -0.666992 10.667 -1 20 -1c16 0 27.833 3.66699 35.5 11s11.5 22.333 11.5 45c0 18.667 -0.333008 31.834 -1 39.501s-3.5 14.334 -8.5 20.001s-12.5 8.5 -22.5 8.5c-13.333 0 -21.833 -6.16699 -25.5 -18.5
s-4.83398 -32.833 -3.50098 -61.5z" />
    <glyph glyph-name="acute" unicode="&#xb4;" horiz-adv-x="229" 
d="M195 671l-98 -108h-64l53 108h109z" />
    <glyph glyph-name="mu" unicode="&#xb5;" 
d="M254 0v46.001c-6.66699 -10.667 -12.167 -18.834 -16.5 -24.501s-12 -12.167 -23 -19.5s-22.833 -11 -35.5 -11c-20.667 0 -39 8.66699 -55 26v-176h-80v659h80v-346c0 -16 0.333008 -28.333 1 -37s2.66699 -19 6 -31s9.33301 -20.833 18 -26.5s20 -8.5 34 -8.5
c16 0 29.167 3.5 39.5 10.5s17.333 17.833 21 32.5s6 27 7 37s1.5 24 1.5 42v327h79v-500h-77z" />
    <glyph glyph-name="mu" unicode="&#x3bc;" 
d="M254 0v46.001c-6.66699 -10.667 -12.167 -18.834 -16.5 -24.501s-12 -12.167 -23 -19.5s-22.833 -11 -35.5 -11c-20.667 0 -39 8.66699 -55 26v-176h-80v659h80v-346c0 -16 0.333008 -28.333 1 -37s2.66699 -19 6 -31s9.33301 -20.833 18 -26.5s20 -8.5 34 -8.5
c16 0 29.167 3.5 39.5 10.5s17.333 17.833 21 32.5s6 27 7 37s1.5 24 1.5 42v327h79v-500h-77z" />
    <glyph glyph-name="paragraph" unicode="&#xb6;" horiz-adv-x="667" 
d="M309 706l230 0.000976562v-54h-34v-818h-58v818h-144v-818h-58v485c-16.667 3.33301 -29.5 6.33301 -38.5 9s-20 7.66699 -33 15s-24.833 16.666 -35.5 27.999c-34 34.667 -51 79.667 -51 135c0 13.333 1.16699 26.833 3.5 40.5s8 30.667 17 51s21 38 36 53
s36.833 28 65.5 39s62 16.5 100 16.5z" />
    <glyph glyph-name="periodcentered" unicode="&#xb7;" horiz-adv-x="167" 
d="M126 327v-118h-85v118h85z" />
    <glyph glyph-name="periodcentered" unicode="&#x2219;" horiz-adv-x="167" 
d="M126 327v-118h-85v118h85z" />
    <glyph glyph-name="cedilla" unicode="&#xb8;" horiz-adv-x="229" 
d="M21 -198l11.999 25.001c20.667 -9.33301 39 -14 55 -14c16.667 0 30.334 5 41.001 15s16 20.667 16 32s-3.66699 21 -11 29s-17 12 -29 12c-7.33301 0 -17 -4.33301 -29 -13c-3.33301 1.33301 -10 3.66602 -20 6.99902l38 109h26l-26 -78c17.333 6.66699 32.333 10 45 10
c18.667 0 34.667 -5.83301 48 -17.5s20 -27.167 20 -46.5c0 -23.333 -10 -44 -30 -62s-46.333 -27 -79 -27c-23.333 0 -49 6.33301 -77 19z" />
    <glyph glyph-name="onesuperior" unicode="&#xb9;" horiz-adv-x="250" 
d="M164 706v-441h-68v335h-71v54c31.333 0 52.5 2.83301 63.5 8.5s16.5 20.167 16.5 43.5h59z" />
    <glyph glyph-name="ordmasculine" unicode="&#xba;" horiz-adv-x="229" 
d="M207 554c0 -26.667 -0.168945 -45.998 -0.501953 -57.998s-2 -26.667 -5 -44s-7.66699 -29.666 -14 -36.999s-15.333 -13.833 -27 -19.5s-26.5 -8.5 -44.5 -8.5c-49.333 0 -78.666 20 -87.999 60c-3.33301 13.333 -5 49 -5 107c0 24 0.166992 41.667 0.5 53
s2 25.166 5 41.499s7.66699 28.166 14 35.499s15.333 13.833 27 19.5s26.5 8.5 44.5 8.5c15.333 0 28.333 -1.5 39 -4.5s19.5 -8.33301 26.5 -16s12.333 -15 16 -22s6.33398 -18 8.00098 -33s2.66699 -27.333 3 -37s0.5 -24.834 0.5 -45.501zM142.998 555.002
c0 46 -1.5 75 -4.5 87s-10.833 18 -23.5 18c-15.333 0 -24.333 -9.33301 -27 -28c-0.666992 -9.33301 -1 -35 -1 -77c0 -54 1.33301 -87.167 4 -99.5s10.667 -18.5 24 -18.5c16.667 0 25.667 13 27 39c0.666992 8.66699 1 35 1 79z" />
    <glyph glyph-name="guillemotright" unicode="&#xbb;" horiz-adv-x="354" 
d="M332 238l-140 -158v118l74 83l-74 83v116l140 -156v-86zM170 238l-140 -158v118l74 83l-74 83v116l140 -156v-86z" />
    <glyph glyph-name="onequarter" unicode="&#xbc;" horiz-adv-x="625" 
d="M164 706v-441h-68v335h-71v54c31.333 0 52.5 2.83301 63.5 8.5s16.5 20.167 16.5 43.5h59zM509 706l-345 -706h-48l348 706h45zM568 96v-96h-64v96h-111v67l89 278h86v-286h38v-59h-38zM450 155h54l2 184z" />
    <glyph glyph-name="onehalf" unicode="&#xbd;" horiz-adv-x="625" 
d="M164 706v-441h-68v335h-71v54c31.333 0 52.5 2.83301 63.5 8.5s16.5 20.167 16.5 43.5h59zM495 706l-344 -706h-49l348 706h45zM599 60v-60.001h-202v60l89 151c20 33.333 32.333 56.333 37 69s7 30.334 7 53.001c0 34 -11 51 -33 51c-10 0 -17.5 -3.16699 -22.5 -9.5
s-7.83301 -12.333 -8.5 -18s-1 -14.167 -1 -25.5v-56h-63v60c0 74.667 31.333 112 94 112c22.667 0 41.334 -4.83301 56.001 -14.5s24.667 -22.667 30 -39s8.66602 -28.833 9.99902 -37.5s2 -17.667 2 -27c0 -44 -13.333 -88 -40 -132l-84 -137h129z" />
    <glyph glyph-name="threequarters" unicode="&#xbe;" horiz-adv-x="625" 
d="M526 706l-345 -706h-49l348 706h46zM568 96v-96h-64v96h-111v67l89 278h86v-286h38v-59h-38zM450 155h54l2 183zM91 571l-63 -0.00195312c0 18.667 0.166992 32.667 0.5 42s2 21.5 5 36.5s7.5 26.167 13.5 33.5s15.333 14 28 20s28.334 9 47.001 9
c63.333 0 95 -39.333 95 -118c0 -32 -2.16699 -53.333 -6.5 -64s-13.166 -21 -26.499 -31c15.333 -8.66699 25.833 -20.167 31.5 -34.5s8.5 -44.166 8.5 -89.499c0 -7.33301 -0.166992 -14.166 -0.5 -20.499s-2.33301 -15.833 -6 -28.5s-8.83398 -23.5 -15.501 -32.5
s-16.834 -17 -30.501 -24s-30.167 -10.5 -49.5 -10.5c-40 0 -68.333 11.667 -85 35c-8 10.667 -12.833 21.834 -14.5 33.501s-2.5 38.167 -2.5 79.5h63c-1.33301 -34.667 -0.166016 -57.834 3.50098 -69.501s14.167 -17.5 31.5 -17.5c8 0 14.333 1.16699 19 3.5
s8.5 5.16602 11.5 8.49902s5 9.33301 6 18s1.66699 16.167 2 22.5s0.5 17.166 0.5 32.499c0 22 -3 37.667 -9 47s-19 14 -39 14c-2 0 -6 -0.166992 -12 -0.5s-10 -0.5 -12 -0.5v63c4 -0.666992 10.667 -1 20 -1c16 0 27.833 3.66699 35.5 11s11.5 22.333 11.5 45
c0 18.667 -0.333008 31.834 -1 39.501s-3.5 14.334 -8.5 20.001s-12.5 8.5 -22.5 8.5c-13.333 0 -21.833 -6.16699 -25.5 -18.5s-4.83398 -32.833 -3.50098 -61.5z" />
    <glyph glyph-name="questiondown" unicode="&#xbf;" horiz-adv-x="396" 
d="M131 589v118h85v-118h-85zM338 241v-100.002c0 -56.667 -14.667 -96 -44 -118c-28 -22 -62.667 -33 -104 -33c-54 0 -95.667 17.667 -125 53c-20 25.333 -30 63 -30 113c0 36.667 1.66699 63.834 5 81.501s9.33301 34.167 18 49.5c19.333 33.333 36.666 61 51.999 83
c15.333 25.333 24.5 45.166 27.5 59.499s4.16699 43.833 3.5 88.5h66c0 -59.333 -1.33301 -95.333 -4 -108c-3.33301 -18.667 -20.666 -57.667 -51.999 -117c-14 -26 -22.667 -46.5 -26 -61.5s-5 -45.833 -5 -92.5c0 -21.333 7 -38.166 21 -50.499s31.333 -18.5 52 -18.5
c15.333 0 28 2.5 38 7.5s16.833 12.5 20.5 22.5s6 18.333 7 25s1.5 15.334 1.5 26.001v90h78z" />
    <glyph glyph-name="Agrave" unicode="&#xc0;" horiz-adv-x="396" 
d="M240 706l156 -706h-92l-25 136h-164l-24 -136h-91l152 706h88zM130 212h134l-69 363zM243 775h-64l-98 108h109z" />
    <glyph glyph-name="Aacute" unicode="&#xc1;" horiz-adv-x="396" 
d="M240 706l156 -706h-92l-25 136h-164l-24 -136h-91l152 706h88zM130 212h134l-69 363zM316 883l-98 -108h-64l53 108h109z" />
    <glyph glyph-name="Acircumflex" unicode="&#xc2;" horiz-adv-x="396" 
d="M240 706l156 -706h-92l-25 136h-164l-24 -136h-91l152 706h88zM130 212h134l-69 363zM70 773l101 110h65l99 -110h-88l-53 63l-57 -63h-67z" />
    <glyph glyph-name="Atilde" unicode="&#xc3;" horiz-adv-x="396" 
d="M240 706l156 -706h-92l-25 136h-164l-24 -136h-91l152 706h88zM130 212h134l-69 363zM289 871h35.999c-2 -33.333 -10.667 -56.666 -26 -69.999s-31.666 -20 -48.999 -20c-8.66699 0 -28.667 5.33301 -60 16c-26.667 10 -44.334 15 -53.001 15
c-16.667 0 -26 -10.333 -28 -31h-36c1.33301 31.333 9.66602 54.166 24.999 68.499s32.333 21.5 51 21.5c10.667 0 40 -8.33301 88 -25c10.667 -4 19.334 -6 26.001 -6c7.33301 0 13 2 17 6s6.33301 7.66699 7 11s1.33398 8 2.00098 14z" />
    <glyph glyph-name="Adieresis" unicode="&#xc4;" horiz-adv-x="396" 
d="M240 706l156 -706h-92l-25 136h-164l-24 -136h-91l152 706h88zM130 212h134l-69 363zM328 882v-106h-83v106h83zM150 882v-106h-83v106h83z" />
    <glyph glyph-name="Aring" unicode="&#xc5;" horiz-adv-x="396" 
d="M240 706l156 -706h-92l-25 136h-164l-24 -136h-91l152 706h88zM130 212h134l-69 363zM198 901c22 0 41 -7.83203 57 -23.499s24 -34.5 24 -56.5c0 -22.667 -8 -41.834 -24 -57.501s-35 -23.5 -57 -23.5s-40.833 8 -56.5 24s-23.5 35 -23.5 57s7.83301 40.833 23.5 56.5
s34.5 23.5 56.5 23.5zM199 858.001c-10 0 -18.667 -3.49902 -26 -10.499s-11 -15.833 -11 -26.5c0 -10 3.66699 -18.5 11 -25.5s16 -10.5 26 -10.5s18.5 3.66699 25.5 11s10.5 15.666 10.5 24.999c0 10.667 -3.5 19.5 -10.5 26.5s-15.5 10.5 -25.5 10.5z" />
    <glyph glyph-name="AE" unicode="&#xc6;" horiz-adv-x="625" 
d="M605 79v-79h-308v154h-153l-52 -154h-92l249 706h344v-79h-209v-210h179v-80h-179v-258h221zM170 231h127v386z" />
    <glyph glyph-name="Ccedilla" unicode="&#xc7;" horiz-adv-x="417" 
d="M298 248h81.999c0 -58 -1 -98.667 -3 -122s-7.66699 -44.666 -17 -63.999c-8 -16.667 -19.167 -30.5 -33.5 -41.5s-29.666 -18.5 -45.999 -22.5s-29.5 -6.5 -39.5 -7.5s-19.333 -1.16699 -28 -0.5l-20 -58c17.333 6.66699 32.333 10 45 10
c18.667 0 34.667 -5.83301 48 -17.5s20 -27.167 20 -46.5c0 -23.333 -10 -44 -30 -62s-46.333 -27 -79 -27c-23.333 0 -49 6.33301 -77 19c1.33301 2 3.5 6 6.5 12s4.83301 10.333 5.5 13c20.667 -9.33301 39 -14 55 -14c16.667 0 30.334 5 41.001 15s16 20.667 16 32
s-3.66699 21 -11 29s-16.666 12 -27.999 12c-8 0 -18 -4.33301 -30 -13c-3.33301 1.33301 -10 3.66602 -20 6.99902l30 89c-10 2 -18.333 3.83301 -25 5.5s-16.667 5.5 -30 11.5s-24.5 13.167 -33.5 21.5s-18 20.333 -27 36s-15.167 33.834 -18.5 54.501
c-4.66699 31.333 -7 106.333 -7 225c0 126.667 2.66699 206.667 8 240c2 10.667 4 19.5 6 26.5s6.83301 18 14.5 33s17 27.167 28 36.5s27 17.833 48 25.5s45.167 11.5 72.5 11.5c34 0 65.167 -8.16699 93.5 -24.5s46.5 -42.166 54.5 -77.499
c6 -24.667 8.33301 -68.667 7 -132h-82v54c0 12.667 -0.166992 22.667 -0.5 30s-1.83301 16.5 -4.5 27.5s-6.33398 19.5 -11.001 25.5s-11.834 11.333 -21.501 16s-21.5 7 -35.5 7c-17.333 0 -32 -3 -44 -9s-20.5 -14.5 -25.5 -25.5s-8.33301 -19.833 -10 -26.5
s-3.16699 -15.334 -4.5 -26.001c-4 -34 -6 -104.667 -6 -212c0 -114.667 2 -186 6 -214c10 -44.667 37.333 -67 82 -67c14.667 0 27.167 2.5 37.5 7.5s18 12.333 23 22s8.33301 16.667 10 21s3.16699 10.166 4.5 17.499c2.66699 15.333 4 54.333 4 117z" />
    <glyph glyph-name="Egrave" unicode="&#xc8;" horiz-adv-x="396" 
d="M368 79v-79h-318v706h310v-79h-222v-210h195v-80h-195v-258h230zM243 775h-64l-98 108h109z" />
    <glyph glyph-name="Eacute" unicode="&#xc9;" horiz-adv-x="396" 
d="M368 79v-79h-318v706h310v-79h-222v-210h195v-80h-195v-258h230zM316 883l-98 -108h-64l53 108h109z" />
    <glyph glyph-name="Ecircumflex" unicode="&#xca;" horiz-adv-x="396" 
d="M368 79v-79h-318v706h310v-79h-222v-210h195v-80h-195v-258h230zM65 773l101 110h65l99 -110h-88l-53 63l-57 -63h-67z" />
    <glyph glyph-name="Edieresis" unicode="&#xcb;" horiz-adv-x="396" 
d="M368 79v-79h-318v706h310v-79h-222v-210h195v-80h-195v-258h230zM329 882v-106h-83v106h83zM151 882v-106h-83v106h83z" />
    <glyph glyph-name="Igrave" unicode="&#xcc;" horiz-adv-x="187" 
d="M137 706v-706h-87v706h87zM139 775h-64l-98 108h109z" />
    <glyph glyph-name="Iacute" unicode="&#xcd;" horiz-adv-x="187" 
d="M137 706v-706h-87v706h87zM212 883l-98 -108h-64l53 108h109z" />
    <glyph glyph-name="Icircumflex" unicode="&#xce;" horiz-adv-x="187" 
d="M137 706v-706h-87v706h87zM-39 773l101 110h65l99 -110h-88l-53 63l-57 -63h-67z" />
    <glyph glyph-name="Idieresis" unicode="&#xcf;" horiz-adv-x="187" 
d="M137 706v-706h-87v706h87zM225 882v-106h-83v106h83zM47 882v-106h-83v106h83z" />
    <glyph glyph-name="Eth" unicode="&#xd0;" horiz-adv-x="437" 
d="M50 0v354.999h-49v64h49v287h133c30 0 52.833 -0.666992 68.5 -2s34 -6 55 -14s38.167 -20.333 51.5 -37c16.667 -20 26.667 -44.5 30 -73.5s5 -88.5 5 -178.5v-115c0 -65.333 -0.5 -107.666 -1.5 -126.999s-3.83301 -37 -8.5 -53c-6 -20.667 -14.667 -38 -26 -52
s-22.5 -24.5 -33.5 -31.5s-26.167 -12.333 -45.5 -16s-34.833 -5.66699 -46.5 -6s-28.5 -0.5 -50.5 -0.5h-131zM226 354.999l-88.0029 0.00195312v-277h43c17.333 0 31 0.166992 41 0.5s20 2.16602 30 5.49902s17.5 6.5 22.5 9.5s10 9.5 15 19.5s8.33301 19.333 10 28
s3.33398 23 5.00098 43s2.5 38.667 2.5 56v75c0 111.333 -1 182 -3 212c-0.666992 12.667 -1.66699 23.5 -3 32.5s-3.83301 17 -7.5 24l-9 17.5c-2.33301 4.66699 -7.66602 8.66699 -15.999 12s-15.166 5.66602 -20.499 6.99902s-15 2.5 -29 3.5s-25.667 1.5 -35 1.5h-46
v-206h88v-64z" />
    <glyph glyph-name="Ntilde" unicode="&#xd1;" horiz-adv-x="437" 
d="M387 707v-707h-124l-138 612l12 -612h-86v707h120l143 -619l-12 619h85zM310 871h35.999c-2 -33.333 -10.667 -56.666 -26 -69.999s-31.666 -20 -48.999 -20c-8.66699 0 -28.667 5.33301 -60 16c-26.667 10 -44.334 15 -53.001 15c-16.667 0 -26 -10.333 -28 -31h-36
c1.33301 31.333 9.66602 54.166 24.999 68.499s32.333 21.5 51 21.5c10.667 0 40 -8.33301 88 -25c10.667 -4 19.334 -6 26.001 -6c7.33301 0 13 2 17 6s6.33301 7.66699 7 11s1.33398 8 2.00098 14z" />
    <glyph glyph-name="Ograve" unicode="&#xd2;" horiz-adv-x="437" 
d="M393 363c0 -55.333 -2.00098 -118.334 -6.00098 -189.001c-1.33301 -26 -4.33301 -48.333 -9 -67s-12.667 -37.667 -24 -57s-28.833 -34.166 -52.5 -44.499s-52.834 -15.5 -87.501 -15.5c-38.667 0 -70.334 6.66699 -95.001 20c-36.667 20 -59.334 55 -68.001 105
c-4.66699 28 -7 99.333 -7 214c0 112 1.66699 189 5 231c0.666992 11.333 2 21.666 4 30.999s6.66699 22.333 14 39s16.833 30.834 28.5 42.501s28.834 22 51.501 31s49 13.5 79 13.5c28 0 52.333 -4.16699 73 -12.5s36.334 -17.666 47.001 -27.999
s19.334 -23.5 26.001 -39.5s10.834 -28.333 12.501 -37s3.16699 -19 4.5 -31c2.66699 -26.667 4 -95.334 4 -206.001zM133.999 313.999c0 -32.667 0.333984 -63.999 1.00098 -93.999v-29.5c0 -15 0.333008 -25.667 1 -32l3 -28c1.33301 -12.333 3.83301 -21.5 7.5 -27.5
s8.5 -12.667 14.5 -20s13.833 -12.5 23.5 -15.5s20.834 -4.5 33.501 -4.5c14 0 26.167 2.66699 36.5 8s18.166 11.166 23.499 17.499s9.66602 15.666 12.999 27.999s5.33301 21.833 6 28.5s1.33398 16.667 2.00098 30c4.66699 64.667 6.33398 127.334 5.00098 188.001
c0 18.667 -0.333008 46.5 -1 83.5s-1 64.5 -1 82.5c-0.666992 16 -1.5 28.5 -2.5 37.5s-3.83301 20.5 -8.5 34.5s-12.834 24.5 -24.501 31.5s-26.834 10.5 -45.501 10.5s-34.167 -3.83301 -46.5 -11.5s-21 -18.667 -26 -33s-8.16699 -25.833 -9.5 -34.5s-2.33301 -20 -3 -34
c-1.33301 -23.333 -2 -95.333 -2 -216zM264 775h-64l-98 108h109z" />
    <glyph glyph-name="Oacute" unicode="&#xd3;" horiz-adv-x="437" 
d="M393 363c0 -55.333 -2.00098 -118.334 -6.00098 -189.001c-1.33301 -26 -4.33301 -48.333 -9 -67s-12.667 -37.667 -24 -57s-28.833 -34.166 -52.5 -44.499s-52.834 -15.5 -87.501 -15.5c-38.667 0 -70.334 6.66699 -95.001 20c-36.667 20 -59.334 55 -68.001 105
c-4.66699 28 -7 99.333 -7 214c0 112 1.66699 189 5 231c0.666992 11.333 2 21.666 4 30.999s6.66699 22.333 14 39s16.833 30.834 28.5 42.501s28.834 22 51.501 31s49 13.5 79 13.5c28 0 52.333 -4.16699 73 -12.5s36.334 -17.666 47.001 -27.999
s19.334 -23.5 26.001 -39.5s10.834 -28.333 12.501 -37s3.16699 -19 4.5 -31c2.66699 -26.667 4 -95.334 4 -206.001zM133.999 313.999c0 -32.667 0.333984 -63.999 1.00098 -93.999v-29.5c0 -15 0.333008 -25.667 1 -32l3 -28c1.33301 -12.333 3.83301 -21.5 7.5 -27.5
s8.5 -12.667 14.5 -20s13.833 -12.5 23.5 -15.5s20.834 -4.5 33.501 -4.5c14 0 26.167 2.66699 36.5 8s18.166 11.166 23.499 17.499s9.66602 15.666 12.999 27.999s5.33301 21.833 6 28.5s1.33398 16.667 2.00098 30c4.66699 64.667 6.33398 127.334 5.00098 188.001
c0 18.667 -0.333008 46.5 -1 83.5s-1 64.5 -1 82.5c-0.666992 16 -1.5 28.5 -2.5 37.5s-3.83301 20.5 -8.5 34.5s-12.834 24.5 -24.501 31.5s-26.834 10.5 -45.501 10.5s-34.167 -3.83301 -46.5 -11.5s-21 -18.667 -26 -33s-8.16699 -25.833 -9.5 -34.5s-2.33301 -20 -3 -34
c-1.33301 -23.333 -2 -95.333 -2 -216zM337 883l-98 -108h-64l53 108h109z" />
    <glyph glyph-name="Ocircumflex" unicode="&#xd4;" horiz-adv-x="437" 
d="M393 363c0 -55.333 -2.00098 -118.334 -6.00098 -189.001c-1.33301 -26 -4.33301 -48.333 -9 -67s-12.667 -37.667 -24 -57s-28.833 -34.166 -52.5 -44.499s-52.834 -15.5 -87.501 -15.5c-38.667 0 -70.334 6.66699 -95.001 20c-36.667 20 -59.334 55 -68.001 105
c-4.66699 28 -7 99.333 -7 214c0 112 1.66699 189 5 231c0.666992 11.333 2 21.666 4 30.999s6.66699 22.333 14 39s16.833 30.834 28.5 42.501s28.834 22 51.501 31s49 13.5 79 13.5c28 0 52.333 -4.16699 73 -12.5s36.334 -17.666 47.001 -27.999
s19.334 -23.5 26.001 -39.5s10.834 -28.333 12.501 -37s3.16699 -19 4.5 -31c2.66699 -26.667 4 -95.334 4 -206.001zM133.999 313.999c0 -32.667 0.333984 -63.999 1.00098 -93.999v-29.5c0 -15 0.333008 -25.667 1 -32l3 -28c1.33301 -12.333 3.83301 -21.5 7.5 -27.5
s8.5 -12.667 14.5 -20s13.833 -12.5 23.5 -15.5s20.834 -4.5 33.501 -4.5c14 0 26.167 2.66699 36.5 8s18.166 11.166 23.499 17.499s9.66602 15.666 12.999 27.999s5.33301 21.833 6 28.5s1.33398 16.667 2.00098 30c4.66699 64.667 6.33398 127.334 5.00098 188.001
c0 18.667 -0.333008 46.5 -1 83.5s-1 64.5 -1 82.5c-0.666992 16 -1.5 28.5 -2.5 37.5s-3.83301 20.5 -8.5 34.5s-12.834 24.5 -24.501 31.5s-26.834 10.5 -45.501 10.5s-34.167 -3.83301 -46.5 -11.5s-21 -18.667 -26 -33s-8.16699 -25.833 -9.5 -34.5s-2.33301 -20 -3 -34
c-1.33301 -23.333 -2 -95.333 -2 -216zM86 773l101 110h65l99 -110h-88l-53 63l-57 -63h-67z" />
    <glyph glyph-name="Otilde" unicode="&#xd5;" horiz-adv-x="437" 
d="M393 363c0 -55.333 -2.00098 -118.334 -6.00098 -189.001c-1.33301 -26 -4.33301 -48.333 -9 -67s-12.667 -37.667 -24 -57s-28.833 -34.166 -52.5 -44.499s-52.834 -15.5 -87.501 -15.5c-38.667 0 -70.334 6.66699 -95.001 20c-36.667 20 -59.334 55 -68.001 105
c-4.66699 28 -7 99.333 -7 214c0 112 1.66699 189 5 231c0.666992 11.333 2 21.666 4 30.999s6.66699 22.333 14 39s16.833 30.834 28.5 42.501s28.834 22 51.501 31s49 13.5 79 13.5c28 0 52.333 -4.16699 73 -12.5s36.334 -17.666 47.001 -27.999
s19.334 -23.5 26.001 -39.5s10.834 -28.333 12.501 -37s3.16699 -19 4.5 -31c2.66699 -26.667 4 -95.334 4 -206.001zM133.999 313.999c0 -32.667 0.333984 -63.999 1.00098 -93.999v-29.5c0 -15 0.333008 -25.667 1 -32l3 -28c1.33301 -12.333 3.83301 -21.5 7.5 -27.5
s8.5 -12.667 14.5 -20s13.833 -12.5 23.5 -15.5s20.834 -4.5 33.501 -4.5c14 0 26.167 2.66699 36.5 8s18.166 11.166 23.499 17.499s9.66602 15.666 12.999 27.999s5.33301 21.833 6 28.5s1.33398 16.667 2.00098 30c4.66699 64.667 6.33398 127.334 5.00098 188.001
c0 18.667 -0.333008 46.5 -1 83.5s-1 64.5 -1 82.5c-0.666992 16 -1.5 28.5 -2.5 37.5s-3.83301 20.5 -8.5 34.5s-12.834 24.5 -24.501 31.5s-26.834 10.5 -45.501 10.5s-34.167 -3.83301 -46.5 -11.5s-21 -18.667 -26 -33s-8.16699 -25.833 -9.5 -34.5s-2.33301 -20 -3 -34
c-1.33301 -23.333 -2 -95.333 -2 -216zM310 871h35.999c-2 -33.333 -10.667 -56.666 -26 -69.999s-31.666 -20 -48.999 -20c-8.66699 0 -28.667 5.33301 -60 16c-26.667 10 -44.334 15 -53.001 15c-16.667 0 -26 -10.333 -28 -31h-36
c1.33301 31.333 9.66602 54.166 24.999 68.499s32.333 21.5 51 21.5c10.667 0 40 -8.33301 88 -25c10.667 -4 19.334 -6 26.001 -6c7.33301 0 13 2 17 6s6.33301 7.66699 7 11s1.33398 8 2.00098 14z" />
    <glyph glyph-name="Odieresis" unicode="&#xd6;" horiz-adv-x="437" 
d="M393 363c0 -55.333 -2.00098 -118.334 -6.00098 -189.001c-1.33301 -26 -4.33301 -48.333 -9 -67s-12.667 -37.667 -24 -57s-28.833 -34.166 -52.5 -44.499s-52.834 -15.5 -87.501 -15.5c-38.667 0 -70.334 6.66699 -95.001 20c-36.667 20 -59.334 55 -68.001 105
c-4.66699 28 -7 99.333 -7 214c0 112 1.66699 189 5 231c0.666992 11.333 2 21.666 4 30.999s6.66699 22.333 14 39s16.833 30.834 28.5 42.501s28.834 22 51.501 31s49 13.5 79 13.5c28 0 52.333 -4.16699 73 -12.5s36.334 -17.666 47.001 -27.999
s19.334 -23.5 26.001 -39.5s10.834 -28.333 12.501 -37s3.16699 -19 4.5 -31c2.66699 -26.667 4 -95.334 4 -206.001zM133.999 313.999c0 -32.667 0.333984 -63.999 1.00098 -93.999v-29.5c0 -15 0.333008 -25.667 1 -32l3 -28c1.33301 -12.333 3.83301 -21.5 7.5 -27.5
s8.5 -12.667 14.5 -20s13.833 -12.5 23.5 -15.5s20.834 -4.5 33.501 -4.5c14 0 26.167 2.66699 36.5 8s18.166 11.166 23.499 17.499s9.66602 15.666 12.999 27.999s5.33301 21.833 6 28.5s1.33398 16.667 2.00098 30c4.66699 64.667 6.33398 127.334 5.00098 188.001
c0 18.667 -0.333008 46.5 -1 83.5s-1 64.5 -1 82.5c-0.666992 16 -1.5 28.5 -2.5 37.5s-3.83301 20.5 -8.5 34.5s-12.834 24.5 -24.501 31.5s-26.834 10.5 -45.501 10.5s-34.167 -3.83301 -46.5 -11.5s-21 -18.667 -26 -33s-8.16699 -25.833 -9.5 -34.5s-2.33301 -20 -3 -34
c-1.33301 -23.333 -2 -95.333 -2 -216zM349 882v-106h-83v106h83zM171 882v-106h-83v106h83z" />
    <glyph glyph-name="multiply" unicode="&#xd7;" horiz-adv-x="500" 
d="M307 293l150 -152l-56 -56l-150 150l-152 -150l-56 56l152 152l-152 150l56 55l152 -150l150 150l56 -55z" />
    <glyph glyph-name="Oslash" unicode="&#xd8;" horiz-adv-x="437" 
d="M77 45l-22.001 -44.9971l-36 21l36 73c-7.33301 42 -11 109 -11 201c0 20 0.166992 41 0.5 63s0.666016 42 0.999023 60s0.5 34.333 0.5 49s0.166992 26.5 0.5 35.5s0.5 13.833 0.5 14.5c0.666992 14.667 1.5 27 2.5 37s3.16699 24 6.5 42s9 33.167 17 45.5
s18.167 24.666 30.5 36.999s28.833 21.833 49.5 28.5s44.334 10 71.001 10c50.667 0 91.667 -13.333 123 -40l19 38l37 -19l-29 -56c9.33301 -22.667 15.333 -48 18 -76s4 -83 4 -165c0 -94.667 -2 -169.334 -6 -224.001
c-1.33301 -20.667 -3.66602 -38.834 -6.99902 -54.501s-8.83301 -32.167 -16.5 -49.5s-17.5 -31.5 -29.5 -42.5s-28.333 -20.167 -49 -27.5s-45 -11 -73 -11c-26 0 -48.667 3 -68 9s-33.333 12.5 -42 19.5s-18 15.833 -28 26.5zM304.999 502.003l-170 -338
c2 -68 30.333 -102 85 -102c18 0 32.667 3.5 44 10.5s19.5 17.5 24.5 31.5s8.16699 25.5 9.5 34.5s2.33301 21.167 3 36.5c4.66699 105.333 6 214.333 4 327zM133.999 253.003l165.999 329.001c-2 7.33301 -4 13.333 -6 18s-5.66699 11 -11 19s-13.166 14 -23.499 18
s-22.833 6 -37.5 6c-28 0 -50 -10.333 -66 -31c-8.66699 -12 -14.167 -26.833 -16.5 -44.5s-3.83301 -43.834 -4.5 -78.501c-0.666992 -11.333 -1 -50.5 -1 -117.5v-118.5z" />
    <glyph glyph-name="Ugrave" unicode="&#xd9;" horiz-adv-x="437" 
d="M301 706l88.999 0.000976562v-476c0 -47.333 -1 -81.333 -3 -102s-6.66699 -39.334 -14 -56.001c-23.333 -54.667 -74.666 -82 -153.999 -82c-80 0 -132 25.667 -156 77c-6.66699 15.333 -11 32 -13 50s-3 53.667 -3 107v482h89v-515
c0 -16.667 0.166992 -29.167 0.5 -37.5s2 -19 5 -32s7.33301 -22.833 13 -29.5s14 -12.667 25 -18s24.833 -8 41.5 -8c18 0 32.667 2.66699 44 8s19.333 13.166 24 23.499s7.5 19 8.5 26s1.83301 16.5 2.5 28.5c0.666992 18.667 1 47.334 1 86.001v468zM263.999 775.001h-64
l-98 108h109z" />
    <glyph glyph-name="Uacute" unicode="&#xda;" horiz-adv-x="437" 
d="M301 706l88.999 0.000976562v-476c0 -47.333 -1 -81.333 -3 -102s-6.66699 -39.334 -14 -56.001c-23.333 -54.667 -74.666 -82 -153.999 -82c-80 0 -132 25.667 -156 77c-6.66699 15.333 -11 32 -13 50s-3 53.667 -3 107v482h89v-515
c0 -16.667 0.166992 -29.167 0.5 -37.5s2 -19 5 -32s7.33301 -22.833 13 -29.5s14 -12.667 25 -18s24.833 -8 41.5 -8c18 0 32.667 2.66699 44 8s19.333 13.166 24 23.499s7.5 19 8.5 26s1.83301 16.5 2.5 28.5c0.666992 18.667 1 47.334 1 86.001v468zM336.999 883.001
l-98 -108h-64l53 108h109z" />
    <glyph glyph-name="Ucircumflex" unicode="&#xdb;" horiz-adv-x="437" 
d="M301 706l88.999 0.000976562v-476c0 -47.333 -1 -81.333 -3 -102s-6.66699 -39.334 -14 -56.001c-23.333 -54.667 -74.666 -82 -153.999 -82c-80 0 -132 25.667 -156 77c-6.66699 15.333 -11 32 -13 50s-3 53.667 -3 107v482h89v-515
c0 -16.667 0.166992 -29.167 0.5 -37.5s2 -19 5 -32s7.33301 -22.833 13 -29.5s14 -12.667 25 -18s24.833 -8 41.5 -8c18 0 32.667 2.66699 44 8s19.333 13.166 24 23.499s7.5 19 8.5 26s1.83301 16.5 2.5 28.5c0.666992 18.667 1 47.334 1 86.001v468zM85.999 773.001
l101 110h65l99 -110h-88l-53 63l-57 -63h-67z" />
    <glyph glyph-name="Udieresis" unicode="&#xdc;" horiz-adv-x="437" 
d="M301 706l88.999 0.000976562v-476c0 -47.333 -1 -81.333 -3 -102s-6.66699 -39.334 -14 -56.001c-23.333 -54.667 -74.666 -82 -153.999 -82c-80 0 -132 25.667 -156 77c-6.66699 15.333 -11 32 -13 50s-3 53.667 -3 107v482h89v-515
c0 -16.667 0.166992 -29.167 0.5 -37.5s2 -19 5 -32s7.33301 -22.833 13 -29.5s14 -12.667 25 -18s24.833 -8 41.5 -8c18 0 32.667 2.66699 44 8s19.333 13.166 24 23.499s7.5 19 8.5 26s1.83301 16.5 2.5 28.5c0.666992 18.667 1 47.334 1 86.001v468zM348.999 882.001
v-106h-83v106h83zM170.999 882.001v-106h-83v106h83z" />
    <glyph glyph-name="Yacute" unicode="&#xdd;" horiz-adv-x="396" 
d="M241 277v-277h-91v277l-150 429h94l104 -353l105 353h93zM326 883l-98 -108h-64l53 108h109z" />
    <glyph glyph-name="Thorn" unicode="&#xde;" horiz-adv-x="417" 
d="M138 172l0.000976562 -172h-87v707h87v-118h57c61.333 0 104.333 -7.66699 129 -23c20.667 -12.667 36.167 -30.667 46.5 -54s16.166 -43.833 17.499 -61.5s2 -43.167 2 -76.5c0 -85.333 -16.667 -142 -50 -170c-18 -14.667 -38.833 -23.667 -62.5 -27
s-70.167 -5 -139.5 -5zM138.001 508l0.000976562 -257.999h59c47.333 0 76.833 7.5 88.5 22.5s17.5 46.5 17.5 94.5c0 25.333 -0.333008 45.166 -1 59.499s-3.83398 27.333 -9.50098 39s-10.834 20 -15.501 25s-15.167 9 -31.5 12s-30.666 4.66699 -42.999 5
s-33.833 0.5 -64.5 0.5z" />
    <glyph glyph-name="germandbls" unicode="&#xdf;" horiz-adv-x="396" 
d="M125 515l-0.000976562 -515.003h-81v514c0 59.333 3 98 9 116c6 20.667 17.5 37.167 34.5 49.5s33.5 20.333 49.5 24s32.333 5.5 49 5.5c27.333 0 50.666 -4.16699 69.999 -12.5s33.5 -17.5 42.5 -27.5s16 -23.333 21 -40s7.83301 -29.334 8.5 -38.001s1 -19.667 1 -33
c0 -20.667 -2.33301 -38.167 -7 -52.5s-11.834 -25.166 -21.501 -32.499s-17.834 -12.333 -24.501 -15s-16 -5.66699 -28 -9c43.333 -10 71 -27.5 83 -52.5s18 -72.167 18 -141.5c0 -64 -1.66699 -108.333 -5 -133s-10 -46 -20 -64
c-23.333 -40.667 -61.666 -61 -114.999 -61c-10.667 0 -24 1.33301 -40 4v68c11.333 -3.33301 22.333 -5 33 -5s19.834 1.33301 27.501 4s13.834 7.5 18.501 14.5s8.33398 13.833 11.001 20.5s4.5 17.334 5.5 32.001s1.66699 27 2 37s0.5 26 0.5 48
c0 80 -4.16699 131.667 -12.5 155s-29.5 35 -63.5 35c-10 0 -17.333 -0.333008 -22 -1v72c31.333 -1.33301 52.833 2.33398 64.5 11.001s17.5 30.334 17.5 65.001c0 12 -0.666992 22.167 -2 30.5s-4 17 -8 26s-10.5 16 -19.5 21s-20.5 7.5 -34.5 7.5c-34 0 -54 -15 -60 -45
c-1.33301 -8 -2 -35.333 -2 -82z" />
    <glyph glyph-name="agrave" unicode="&#xe0;" horiz-adv-x="354" 
d="M309 345v-238.994c0 -38.667 1.33301 -63.834 4 -75.501s9.33398 -21.834 20.001 -30.501h-98v60c-23.333 -46 -57.666 -69 -102.999 -69c-22.667 0 -42.667 5 -60 15c-34.667 20.667 -52 58.334 -52 113.001c0 37.333 6.33301 65.166 19 83.499
s34.334 38.166 65.001 59.499c40 26.667 66 44.5 78 53.5s28 22.833 48 41.5c0 14 -0.333008 24.667 -1 32s-2.83398 16.166 -6.50098 26.499s-9.83398 17.833 -18.501 22.5s-20.334 7 -35.001 7c-14 0 -25.5 -2.16699 -34.5 -6.5s-15.167 -10.666 -18.5 -18.999
s-5.33301 -15.5 -6 -21.5s-1 -14.333 -1 -25c0 -10 0.666992 -22.333 2 -37h-73c-2 45.333 0.333008 78.666 7 99.999c16.667 48.667 60.667 73 132 73c44 0 77.667 -12.333 101 -37c14.667 -14.667 23.5 -29.834 26.5 -45.501s4.5 -42.834 4.5 -81.501zM230 161.006
l0.000976562 124c-15.333 -14.667 -37.333 -32.667 -66 -54c-15.333 -12 -26.5 -21.333 -33.5 -28s-13.667 -17 -20 -31s-9.5 -30 -9.5 -48c0 -49.333 18 -74 54 -74c15.333 0 29.666 5 42.999 15c21.333 16 32 48 32 96zM229.001 563.006h-65l-97 108h109z" />
    <glyph glyph-name="aacute" unicode="&#xe1;" horiz-adv-x="354" 
d="M309 345v-238.994c0 -38.667 1.33301 -63.834 4 -75.501s9.33398 -21.834 20.001 -30.501h-98v60c-23.333 -46 -57.666 -69 -102.999 -69c-22.667 0 -42.667 5 -60 15c-34.667 20.667 -52 58.334 -52 113.001c0 37.333 6.33301 65.166 19 83.499
s34.334 38.166 65.001 59.499c40 26.667 66 44.5 78 53.5s28 22.833 48 41.5c0 14 -0.333008 24.667 -1 32s-2.83398 16.166 -6.50098 26.499s-9.83398 17.833 -18.501 22.5s-20.334 7 -35.001 7c-14 0 -25.5 -2.16699 -34.5 -6.5s-15.167 -10.666 -18.5 -18.999
s-5.33301 -15.5 -6 -21.5s-1 -14.333 -1 -25c0 -10 0.666992 -22.333 2 -37h-73c-2 45.333 0.333008 78.666 7 99.999c16.667 48.667 60.667 73 132 73c44 0 77.667 -12.333 101 -37c14.667 -14.667 23.5 -29.834 26.5 -45.501s4.5 -42.834 4.5 -81.501zM230 161.006
l0.000976562 124c-15.333 -14.667 -37.333 -32.667 -66 -54c-15.333 -12 -26.5 -21.333 -33.5 -28s-13.667 -17 -20 -31s-9.5 -30 -9.5 -48c0 -49.333 18 -74 54 -74c15.333 0 29.666 5 42.999 15c21.333 16 32 48 32 96zM296.001 671.006l-98 -108h-64l53 108h109z" />
    <glyph glyph-name="acircumflex" unicode="&#xe2;" horiz-adv-x="354" 
d="M309 345v-238.994c0 -38.667 1.33301 -63.834 4 -75.501s9.33398 -21.834 20.001 -30.501h-98v60c-23.333 -46 -57.666 -69 -102.999 -69c-22.667 0 -42.667 5 -60 15c-34.667 20.667 -52 58.334 -52 113.001c0 37.333 6.33301 65.166 19 83.499
s34.334 38.166 65.001 59.499c40 26.667 66 44.5 78 53.5s28 22.833 48 41.5c0 14 -0.333008 24.667 -1 32s-2.83398 16.166 -6.50098 26.499s-9.83398 17.833 -18.501 22.5s-20.334 7 -35.001 7c-14 0 -25.5 -2.16699 -34.5 -6.5s-15.167 -10.666 -18.5 -18.999
s-5.33301 -15.5 -6 -21.5s-1 -14.333 -1 -25c0 -10 0.666992 -22.333 2 -37h-73c-2 45.333 0.333008 78.666 7 99.999c16.667 48.667 60.667 73 132 73c44 0 77.667 -12.333 101 -37c14.667 -14.667 23.5 -29.834 26.5 -45.501s4.5 -42.834 4.5 -81.501zM230 161.006
l0.000976562 124c-15.333 -14.667 -37.333 -32.667 -66 -54c-15.333 -12 -26.5 -21.333 -33.5 -28s-13.667 -17 -20 -31s-9.5 -30 -9.5 -48c0 -49.333 18 -74 54 -74c15.333 0 29.666 5 42.999 15c21.333 16 32 48 32 96zM50.001 563.006l101 110h66l98 -110h-87l-54 63
l-57 -63h-67z" />
    <glyph glyph-name="atilde" unicode="&#xe3;" horiz-adv-x="354" 
d="M309 345v-238.994c0 -38.667 1.33301 -63.834 4 -75.501s9.33398 -21.834 20.001 -30.501h-98v60c-23.333 -46 -57.666 -69 -102.999 -69c-22.667 0 -42.667 5 -60 15c-34.667 20.667 -52 58.334 -52 113.001c0 37.333 6.33301 65.166 19 83.499
s34.334 38.166 65.001 59.499c40 26.667 66 44.5 78 53.5s28 22.833 48 41.5c0 14 -0.333008 24.667 -1 32s-2.83398 16.166 -6.50098 26.499s-9.83398 17.833 -18.501 22.5s-20.334 7 -35.001 7c-14 0 -25.5 -2.16699 -34.5 -6.5s-15.167 -10.666 -18.5 -18.999
s-5.33301 -15.5 -6 -21.5s-1 -14.333 -1 -25c0 -10 0.666992 -22.333 2 -37h-73c-2 45.333 0.333008 78.666 7 99.999c16.667 48.667 60.667 73 132 73c44 0 77.667 -12.333 101 -37c14.667 -14.667 23.5 -29.834 26.5 -45.501s4.5 -42.834 4.5 -81.501zM230 161.006
l0.000976562 124c-15.333 -14.667 -37.333 -32.667 -66 -54c-15.333 -12 -26.5 -21.333 -33.5 -28s-13.667 -17 -20 -31s-9.5 -30 -9.5 -48c0 -49.333 18 -74 54 -74c15.333 0 29.666 5 42.999 15c21.333 16 32 48 32 96zM269.001 659.006h35.999
c-2 -33.333 -10.667 -56.666 -26 -69.999s-31.666 -20 -48.999 -20c-8.66699 0 -28.667 5.33301 -60 16c-26.667 10 -44.334 15 -53.001 15c-16.667 0 -26 -10.333 -28 -31h-36c1.33301 31.333 9.66602 54.166 24.999 68.499s32.333 21.5 51 21.5
c10.667 0 40 -8.33301 88 -25c10.667 -4 19.334 -6 26.001 -6c7.33301 0 13 2 17 6s6.33301 7.66699 7 11s1.33398 8 2.00098 14z" />
    <glyph glyph-name="adieresis" unicode="&#xe4;" horiz-adv-x="354" 
d="M309 345v-238.994c0 -38.667 1.33301 -63.834 4 -75.501s9.33398 -21.834 20.001 -30.501h-98v60c-23.333 -46 -57.666 -69 -102.999 -69c-22.667 0 -42.667 5 -60 15c-34.667 20.667 -52 58.334 -52 113.001c0 37.333 6.33301 65.166 19 83.499
s34.334 38.166 65.001 59.499c40 26.667 66 44.5 78 53.5s28 22.833 48 41.5c0 14 -0.333008 24.667 -1 32s-2.83398 16.166 -6.50098 26.499s-9.83398 17.833 -18.501 22.5s-20.334 7 -35.001 7c-14 0 -25.5 -2.16699 -34.5 -6.5s-15.167 -10.666 -18.5 -18.999
s-5.33301 -15.5 -6 -21.5s-1 -14.333 -1 -25c0 -10 0.666992 -22.333 2 -37h-73c-2 45.333 0.333008 78.666 7 99.999c16.667 48.667 60.667 73 132 73c44 0 77.667 -12.333 101 -37c14.667 -14.667 23.5 -29.834 26.5 -45.501s4.5 -42.834 4.5 -81.501zM230 161.006
l0.000976562 124c-15.333 -14.667 -37.333 -32.667 -66 -54c-15.333 -12 -26.5 -21.333 -33.5 -28s-13.667 -17 -20 -31s-9.5 -30 -9.5 -48c0 -49.333 18 -74 54 -74c15.333 0 29.666 5 42.999 15c21.333 16 32 48 32 96zM280.001 666.006v-103h-78v103h78zM125.001 666.006
v-103h-78v103h78z" />
    <glyph glyph-name="aring" unicode="&#xe5;" horiz-adv-x="354" 
d="M309 345v-238.994c0 -38.667 1.33301 -63.834 4 -75.501s9.33398 -21.834 20.001 -30.501h-98v60c-23.333 -46 -57.666 -69 -102.999 -69c-22.667 0 -42.667 5 -60 15c-34.667 20.667 -52 58.334 -52 113.001c0 37.333 6.33301 65.166 19 83.499
s34.334 38.166 65.001 59.499c40 26.667 66 44.5 78 53.5s28 22.833 48 41.5c0 14 -0.333008 24.667 -1 32s-2.83398 16.166 -6.50098 26.499s-9.83398 17.833 -18.501 22.5s-20.334 7 -35.001 7c-14 0 -25.5 -2.16699 -34.5 -6.5s-15.167 -10.666 -18.5 -18.999
s-5.33301 -15.5 -6 -21.5s-1 -14.333 -1 -25c0 -10 0.666992 -22.333 2 -37h-73c-2 45.333 0.333008 78.666 7 99.999c16.667 48.667 60.667 73 132 73c44 0 77.667 -12.333 101 -37c14.667 -14.667 23.5 -29.834 26.5 -45.501s4.5 -42.834 4.5 -81.501zM230 161.006
l0.000976562 124c-15.333 -14.667 -37.333 -32.667 -66 -54c-15.333 -12 -26.5 -21.333 -33.5 -28s-13.667 -17 -20 -31s-9.5 -30 -9.5 -48c0 -49.333 18 -74 54 -74c15.333 0 29.666 5 42.999 15c21.333 16 32 48 32 96zM174.001 709.006c22 0 41 -7.83203 57 -23.499
s24 -34.5 24 -56.5c0 -22.667 -8 -41.834 -24 -57.501s-35 -23.5 -57 -23.5s-40.833 8 -56.5 24s-23.5 35 -23.5 57s7.83301 40.833 23.5 56.5s34.5 23.5 56.5 23.5zM175.001 666.007c-10 0 -18.667 -3.49902 -26 -10.499s-11 -15.833 -11 -26.5
c0 -10 3.66699 -18.5 11 -25.5s16 -10.5 26 -10.5s18.5 3.66699 25.5 11s10.5 15.666 10.5 24.999c0 10.667 -3.5 19.5 -10.5 26.5s-15.5 10.5 -25.5 10.5z" />
    <glyph glyph-name="ae" unicode="&#xe6;" horiz-adv-x="542" 
d="M429 162l76.001 -0.00390625c0 -54 -6.33301 -91.667 -19 -113c-22 -38.667 -62.333 -58 -121 -58c-44.667 0 -80.667 15.667 -108 47c-12.667 -11.333 -22.667 -19.5 -30 -24.5s-17.666 -10 -30.999 -15s-28 -7.5 -44 -7.5c-36 0 -64.667 10.333 -86 31
c-22 20.667 -33 53.667 -33 99c0 34.667 6 61.5 18 80.5s33.667 38.833 65 59.5c56.667 38.667 96.667 67.334 120 86.001c0 17.333 -0.166992 30.333 -0.5 39s-2.16602 18.334 -5.49902 29.001s-9 18.334 -17 23.001s-19 7 -33 7s-25.333 -2.83301 -34 -8.5
s-14.667 -14.667 -18 -27s-5.33301 -23.166 -6 -32.499s-0.666992 -22.666 0 -39.999h-73c0 37.333 0.666992 61.333 2 72c8.66699 66.667 50 100 124 100c40 0 73 -11.333 99 -34c29.333 22.667 61.666 34 96.999 34c49.333 0 85.666 -16.667 108.999 -50
c16.667 -23.333 25 -67.333 25 -132v-90h-195v-89c0 -10 0.166992 -17.833 0.5 -23.5s1.5 -13.834 3.5 -24.501s5 -19 9 -25s10.167 -11.333 18.5 -16s18.166 -7 29.499 -7c14 0 25.5 3.66699 34.5 11s14.833 16.5 17.5 27.5s4.66699 23 6 36s1.33301 24.833 0 35.5z
M236.001 153.996l0.000976562 116.003c-2 -1.33301 -11.333 -8 -28 -20s-26.667 -19.333 -30 -22c-16.667 -12.667 -28.667 -22.334 -36 -29.001s-14.5 -16.834 -21.5 -30.501s-10.5 -28.834 -10.5 -45.501c0 -18.667 4.66699 -34.667 14 -48s23.666 -20 42.999 -20
c16 0 29.667 4.66699 41 14c18.667 14.667 28 43 28 85zM310.002 300.999l119.999 0.000976562v53c0 11.333 -0.333008 20.666 -1 27.999s-2.66699 16.833 -6 28.5s-9.66602 20.5 -18.999 26.5s-21 9 -35 9s-25.333 -3 -34 -9s-14.667 -14.5 -18 -25.5
s-5.33301 -20.167 -6 -27.5s-1 -17 -1 -29v-54z" />
    <glyph glyph-name="ccedilla" unicode="&#xe7;" horiz-adv-x="354" 
d="M244 186l75.9971 0.00488281c0 -45.333 -2.33301 -79 -7 -101s-14.667 -41 -30 -57c-24 -24.667 -56 -37 -96 -37l-20 -59c17.333 6.66699 32.333 10 45 10c18.667 0 34.667 -5.83301 48 -17.5s20 -27.167 20 -46.5c0 -23.333 -10 -44 -30 -62s-46.333 -27 -79 -27
c-23.333 0 -49 6.33301 -77 19c1.33301 2 3.5 6.16699 6.5 12.5s5.16699 10.5 6.5 12.5c18.667 -9.33301 36.667 -14 54 -14c16.667 0 30.334 5 41.001 15s16 20.667 16 32s-3.66699 21 -11 29s-16.666 12 -27.999 12c-8.66699 0 -18.334 -4.33301 -29.001 -13
c-10 3.33301 -16.667 5.66602 -20 6.99902l30 91c-17.333 1.33301 -32.5 4.5 -45.5 9.5s-24 10.333 -33 16s-16.5 15 -22.5 28s-10.5 24.167 -13.5 33.5s-5.16699 24.5 -6.5 45.5s-2.16602 38 -2.49902 51s-0.5 33.833 -0.5 62.5c0 26 0.166992 47 0.5 63
s1.16602 34 2.49902 54s3.33301 35.833 6 47.5s6.33398 24.167 11.001 37.5s10.667 23.5 18 30.5s16 13.833 26 20.5s22 11.334 36 14.001s29.667 4 47 4c26.667 0 49 -3.83301 67 -11.5s31.5 -16.334 40.5 -26.001s15.833 -24.334 20.5 -44.001
s7.33398 -36.167 8.00098 -49.5s1 -33 1 -59h-76c0 22 -0.166992 37.833 -0.5 47.5s-1.5 21 -3.5 34s-5.16699 22.167 -9.5 27.5s-10.5 10 -18.5 14s-18.333 6 -31 6c-29.333 0 -47.333 -11.333 -54 -34s-10 -72.334 -10 -149.001c0 -60.667 0.333008 -105.334 1 -134.001
c0.666992 -13.333 1.66699 -24.333 3 -33s7 -18.167 17 -28.5s24 -15.5 42 -15.5c27.333 0 44.833 10.167 52.5 30.5s11.5 54.166 11.5 101.499z" />
    <glyph glyph-name="egrave" unicode="&#xe8;" horiz-adv-x="354" 
d="M244 155l73.998 -0.00390625c0 -39.333 -3 -67.666 -9 -84.999c-19.333 -52.667 -63.333 -79 -132 -79c-64.667 0 -107.334 25.667 -128.001 77c-3.33301 10 -5.83301 19.333 -7.5 28s-3 29.167 -4 61.5s-1.5 80.833 -1.5 145.5c0 25.333 0.666992 46.333 2 63
s4.5 34.834 9.5 54.501s12.333 35.334 22 47.001s23.334 21.334 41.001 29.001s38.834 11.5 63.501 11.5c82.667 0 129.334 -36.333 140.001 -109c2.66699 -16.667 4 -71.667 4 -165h-201c0 -66 0.333008 -102 1 -108c4.66699 -47.333 25.667 -71 63 -71
c26 0 43 8.66699 51 26s12 42 12 74zM116.998 298.996l126.002 0.000976562v62c-0.666992 10.667 -1.33398 19.167 -2.00098 25.5s-2.83398 15.166 -6.50098 26.499s-10 19.833 -19 25.5s-20.5 8.5 -34.5 8.5c-30 0 -49.333 -14 -58 -42c-4 -12.667 -6 -48 -6 -106z
M229 562.997h-65l-97 108h109z" />
    <glyph glyph-name="eacute" unicode="&#xe9;" horiz-adv-x="354" 
d="M244 155l73.998 -0.00390625c0 -39.333 -3 -67.666 -9 -84.999c-19.333 -52.667 -63.333 -79 -132 -79c-64.667 0 -107.334 25.667 -128.001 77c-3.33301 10 -5.83301 19.333 -7.5 28s-3 29.167 -4 61.5s-1.5 80.833 -1.5 145.5c0 25.333 0.666992 46.333 2 63
s4.5 34.834 9.5 54.501s12.333 35.334 22 47.001s23.334 21.334 41.001 29.001s38.834 11.5 63.501 11.5c82.667 0 129.334 -36.333 140.001 -109c2.66699 -16.667 4 -71.667 4 -165h-201c0 -66 0.333008 -102 1 -108c4.66699 -47.333 25.667 -71 63 -71
c26 0 43 8.66699 51 26s12 42 12 74zM116.998 298.996l126.002 0.000976562v62c-0.666992 10.667 -1.33398 19.167 -2.00098 25.5s-2.83398 15.166 -6.50098 26.499s-10 19.833 -19 25.5s-20.5 8.5 -34.5 8.5c-30 0 -49.333 -14 -58 -42c-4 -12.667 -6 -48 -6 -106z
M296 670.997l-98 -108h-64l53 108h109z" />
    <glyph glyph-name="ecircumflex" unicode="&#xea;" horiz-adv-x="354" 
d="M244 155l73.998 -0.00390625c0 -39.333 -3 -67.666 -9 -84.999c-19.333 -52.667 -63.333 -79 -132 -79c-64.667 0 -107.334 25.667 -128.001 77c-3.33301 10 -5.83301 19.333 -7.5 28s-3 29.167 -4 61.5s-1.5 80.833 -1.5 145.5c0 25.333 0.666992 46.333 2 63
s4.5 34.834 9.5 54.501s12.333 35.334 22 47.001s23.334 21.334 41.001 29.001s38.834 11.5 63.501 11.5c82.667 0 129.334 -36.333 140.001 -109c2.66699 -16.667 4 -71.667 4 -165h-201c0 -66 0.333008 -102 1 -108c4.66699 -47.333 25.667 -71 63 -71
c26 0 43 8.66699 51 26s12 42 12 74zM116.998 298.996l126.002 0.000976562v62c-0.666992 10.667 -1.33398 19.167 -2.00098 25.5s-2.83398 15.166 -6.50098 26.499s-10 19.833 -19 25.5s-20.5 8.5 -34.5 8.5c-30 0 -49.333 -14 -58 -42c-4 -12.667 -6 -48 -6 -106z
M50 562.997l101 110h66l98 -110h-87l-54 63l-57 -63h-67z" />
    <glyph glyph-name="edieresis" unicode="&#xeb;" horiz-adv-x="354" 
d="M244 155l73.998 -0.00390625c0 -39.333 -3 -67.666 -9 -84.999c-19.333 -52.667 -63.333 -79 -132 -79c-64.667 0 -107.334 25.667 -128.001 77c-3.33301 10 -5.83301 19.333 -7.5 28s-3 29.167 -4 61.5s-1.5 80.833 -1.5 145.5c0 25.333 0.666992 46.333 2 63
s4.5 34.834 9.5 54.501s12.333 35.334 22 47.001s23.334 21.334 41.001 29.001s38.834 11.5 63.501 11.5c82.667 0 129.334 -36.333 140.001 -109c2.66699 -16.667 4 -71.667 4 -165h-201c0 -66 0.333008 -102 1 -108c4.66699 -47.333 25.667 -71 63 -71
c26 0 43 8.66699 51 26s12 42 12 74zM116.998 298.996l126.002 0.000976562v62c-0.666992 10.667 -1.33398 19.167 -2.00098 25.5s-2.83398 15.166 -6.50098 26.499s-10 19.833 -19 25.5s-20.5 8.5 -34.5 8.5c-30 0 -49.333 -14 -58 -42c-4 -12.667 -6 -48 -6 -106z
M295 665.997v-103h-78v103h78zM140 665.997v-103h-78v103h78z" />
    <glyph glyph-name="igrave" unicode="&#xec;" horiz-adv-x="167" 
d="M123 500v-500h-79v500h79zM134 563h-65l-97 108h109z" />
    <glyph glyph-name="iacute" unicode="&#xed;" horiz-adv-x="167" 
d="M123 500v-500h-79v500h79zM201 671l-98 -108h-64l53 108h109z" />
    <glyph glyph-name="icircumflex" unicode="&#xee;" horiz-adv-x="167" 
d="M123 500v-500h-79v500h79zM-45 563l101 110h66l98 -110h-87l-54 63l-57 -63h-67z" />
    <glyph glyph-name="idieresis" unicode="&#xef;" horiz-adv-x="167" 
d="M123 500v-500h-79v500h79zM200 666v-103h-78v103h78zM45 666v-103h-78v103h78z" />
    <glyph glyph-name="eth" unicode="&#xf0;" horiz-adv-x="354" 
d="M334 622l-55.998 -17c17.333 -34.667 28.5 -72.334 33.5 -113.001s7.5 -108.667 7.5 -204c0 -110.667 -3.66699 -180 -11 -208c-14.667 -59.333 -58.667 -89 -132 -89c-58.667 0 -98.667 19.333 -120 58c-8.66699 16 -14.167 34.833 -16.5 56.5s-3.5 63.167 -3.5 124.5
c0 101.333 3.66699 165 11 191c9.33301 32.667 25.166 55.834 47.499 69.501s44.166 20.5 65.499 20.5c30 0 56.667 -13.667 80 -41c-6.66699 50 -16.667 88 -30 114l-110 -34l-16 46l97 30c-19.333 21.333 -40 40 -62 56l67 28c21.333 -16 42 -36.333 62 -61l69 22z
M235.002 246c0 66.667 -0.334961 108.667 -1.00195 126c-3.33301 48 -21.333 72 -54 72c-10 0 -18.5 -1.16699 -25.5 -3.5s-12.667 -7 -17 -14s-7.66602 -13.5 -9.99902 -19.5s-4 -16.167 -5 -30.5s-1.66699 -26.5 -2 -36.5s-0.5 -26 -0.5 -48
c0 -74.667 0.333008 -123.667 1 -147c0 -12 0.333008 -21 1 -27s1.83398 -13.833 3.50098 -23.5s4.33398 -17 8.00098 -22s9 -9.5 16 -13.5s15.5 -6 25.5 -6c27.333 0 44.666 13.667 51.999 41c5.33301 20 8 70.667 8 152z" />
    <glyph glyph-name="ntilde" unicode="&#xf1;" 
d="M331 352l-0.00292969 -351.999h-81v326c0 18.667 -0.166992 32.334 -0.5 41.001s-1.5 19.167 -3.5 31.5s-5 21.166 -9 26.499s-9.83301 10.166 -17.5 14.499s-17.167 6.5 -28.5 6.5c-12.667 0 -23.5 -2.66699 -32.5 -8s-15.667 -11.5 -20 -18.5
s-7.66602 -17 -9.99902 -30s-3.66602 -23.5 -3.99902 -31.5s-0.5 -19.667 -0.5 -35v-323h-80v500h76v-46c30.667 36.667 66.334 55 107.001 55c20 0 36.833 -3.5 50.5 -10.5s24 -15 31 -24s12.333 -21.833 16 -38.5s5.66699 -30.167 6 -40.5s0.5 -24.833 0.5 -43.5z
M277.997 659.001h35.999c-2 -33.333 -10.667 -56.666 -26 -69.999s-31.666 -20 -48.999 -20c-8.66699 0 -28.667 5.33301 -60 16c-26.667 10 -44.334 15 -53.001 15c-16.667 0 -26 -10.333 -28 -31h-36c1.33301 31.333 9.66602 54.166 24.999 68.499s32.333 21.5 51 21.5
c10.667 0 40 -8.33301 88 -25c10.667 -4 19.334 -6 26.001 -6c7.33301 0 13 2 17 6s6.33301 7.66699 7 11s1.33398 8 2.00098 14z" />
    <glyph glyph-name="ograve" unicode="&#xf2;" horiz-adv-x="354" 
d="M319 244c0 -81.333 -3.66699 -136.003 -11 -164.003c-14.667 -59.333 -58.667 -89 -132 -89c-58.667 0 -98.667 19.333 -120 58c-9.33301 16.667 -15 35.834 -17 57.501s-3 65.167 -3 130.5c0 93.333 3.66699 154.333 11 183c16 59.333 60 89 132 89
c60.667 0 101.667 -21.667 123 -65c8 -17.333 12.833 -35.666 14.5 -54.999s2.5 -67.666 2.5 -144.999zM235 244.997c0 67.333 -0.334961 109.668 -1.00195 127.001c-1.33301 47.333 -19.333 71 -54 71c-10 0 -18.5 -1.16699 -25.5 -3.5s-12.667 -7 -17 -14
s-7.66602 -13.5 -9.99902 -19.5s-4 -16.167 -5 -30.5s-1.66699 -26.5 -2 -36.5s-0.5 -26 -0.5 -48c0 -74.667 0.333008 -123.334 1 -146.001c0 -12 0.333008 -21 1 -27s1.83398 -13.833 3.50098 -23.5s4.33398 -17 8.00098 -22s9 -9.5 16 -13.5s15.5 -6 25.5 -6
c27.333 0 44.666 13.667 51.999 41c5.33301 20.667 8 71 8 151zM228.998 562.999h-65l-97 108h109z" />
    <glyph glyph-name="oacute" unicode="&#xf3;" horiz-adv-x="354" 
d="M319 244c0 -81.333 -3.66699 -136.003 -11 -164.003c-14.667 -59.333 -58.667 -89 -132 -89c-58.667 0 -98.667 19.333 -120 58c-9.33301 16.667 -15 35.834 -17 57.501s-3 65.167 -3 130.5c0 93.333 3.66699 154.333 11 183c16 59.333 60 89 132 89
c60.667 0 101.667 -21.667 123 -65c8 -17.333 12.833 -35.666 14.5 -54.999s2.5 -67.666 2.5 -144.999zM235 244.997c0 67.333 -0.334961 109.668 -1.00195 127.001c-1.33301 47.333 -19.333 71 -54 71c-10 0 -18.5 -1.16699 -25.5 -3.5s-12.667 -7 -17 -14
s-7.66602 -13.5 -9.99902 -19.5s-4 -16.167 -5 -30.5s-1.66699 -26.5 -2 -36.5s-0.5 -26 -0.5 -48c0 -74.667 0.333008 -123.334 1 -146.001c0 -12 0.333008 -21 1 -27s1.83398 -13.833 3.50098 -23.5s4.33398 -17 8.00098 -22s9 -9.5 16 -13.5s15.5 -6 25.5 -6
c27.333 0 44.666 13.667 51.999 41c5.33301 20.667 8 71 8 151zM295.998 670.999l-98 -108h-64l53 108h109z" />
    <glyph glyph-name="ocircumflex" unicode="&#xf4;" horiz-adv-x="354" 
d="M319 244c0 -81.333 -3.66699 -136.003 -11 -164.003c-14.667 -59.333 -58.667 -89 -132 -89c-58.667 0 -98.667 19.333 -120 58c-9.33301 16.667 -15 35.834 -17 57.501s-3 65.167 -3 130.5c0 93.333 3.66699 154.333 11 183c16 59.333 60 89 132 89
c60.667 0 101.667 -21.667 123 -65c8 -17.333 12.833 -35.666 14.5 -54.999s2.5 -67.666 2.5 -144.999zM235 244.997c0 67.333 -0.334961 109.668 -1.00195 127.001c-1.33301 47.333 -19.333 71 -54 71c-10 0 -18.5 -1.16699 -25.5 -3.5s-12.667 -7 -17 -14
s-7.66602 -13.5 -9.99902 -19.5s-4 -16.167 -5 -30.5s-1.66699 -26.5 -2 -36.5s-0.5 -26 -0.5 -48c0 -74.667 0.333008 -123.334 1 -146.001c0 -12 0.333008 -21 1 -27s1.83398 -13.833 3.50098 -23.5s4.33398 -17 8.00098 -22s9 -9.5 16 -13.5s15.5 -6 25.5 -6
c27.333 0 44.666 13.667 51.999 41c5.33301 20.667 8 71 8 151zM49.998 562.999l101 110h66l98 -110h-87l-54 63l-57 -63h-67z" />
    <glyph glyph-name="otilde" unicode="&#xf5;" horiz-adv-x="354" 
d="M319 244c0 -81.333 -3.66699 -136.003 -11 -164.003c-14.667 -59.333 -58.667 -89 -132 -89c-58.667 0 -98.667 19.333 -120 58c-9.33301 16.667 -15 35.834 -17 57.501s-3 65.167 -3 130.5c0 93.333 3.66699 154.333 11 183c16 59.333 60 89 132 89
c60.667 0 101.667 -21.667 123 -65c8 -17.333 12.833 -35.666 14.5 -54.999s2.5 -67.666 2.5 -144.999zM235 244.997c0 67.333 -0.334961 109.668 -1.00195 127.001c-1.33301 47.333 -19.333 71 -54 71c-10 0 -18.5 -1.16699 -25.5 -3.5s-12.667 -7 -17 -14
s-7.66602 -13.5 -9.99902 -19.5s-4 -16.167 -5 -30.5s-1.66699 -26.5 -2 -36.5s-0.5 -26 -0.5 -48c0 -74.667 0.333008 -123.334 1 -146.001c0 -12 0.333008 -21 1 -27s1.83398 -13.833 3.50098 -23.5s4.33398 -17 8.00098 -22s9 -9.5 16 -13.5s15.5 -6 25.5 -6
c27.333 0 44.666 13.667 51.999 41c5.33301 20.667 8 71 8 151zM268.998 658.999h35.999c-2 -33.333 -10.667 -56.666 -26 -69.999s-31.666 -20 -48.999 -20c-8.66699 0 -28.667 5.33301 -60 16c-26.667 10 -44.334 15 -53.001 15c-16.667 0 -26 -10.333 -28 -31h-36
c1.33301 31.333 9.66602 54.166 24.999 68.499s32.333 21.5 51 21.5c10.667 0 40 -8.33301 88 -25c10.667 -4 19.334 -6 26.001 -6c7.33301 0 13 2 17 6s6.33301 7.66699 7 11s1.33398 8 2.00098 14z" />
    <glyph glyph-name="odieresis" unicode="&#xf6;" horiz-adv-x="354" 
d="M319 244c0 -81.333 -3.66699 -136.003 -11 -164.003c-14.667 -59.333 -58.667 -89 -132 -89c-58.667 0 -98.667 19.333 -120 58c-9.33301 16.667 -15 35.834 -17 57.501s-3 65.167 -3 130.5c0 93.333 3.66699 154.333 11 183c16 59.333 60 89 132 89
c60.667 0 101.667 -21.667 123 -65c8 -17.333 12.833 -35.666 14.5 -54.999s2.5 -67.666 2.5 -144.999zM235 244.997c0 67.333 -0.334961 109.668 -1.00195 127.001c-1.33301 47.333 -19.333 71 -54 71c-10 0 -18.5 -1.16699 -25.5 -3.5s-12.667 -7 -17 -14
s-7.66602 -13.5 -9.99902 -19.5s-4 -16.167 -5 -30.5s-1.66699 -26.5 -2 -36.5s-0.5 -26 -0.5 -48c0 -74.667 0.333008 -123.334 1 -146.001c0 -12 0.333008 -21 1 -27s1.83398 -13.833 3.50098 -23.5s4.33398 -17 8.00098 -22s9 -9.5 16 -13.5s15.5 -6 25.5 -6
c27.333 0 44.666 13.667 51.999 41c5.33301 20.667 8 71 8 151zM292.998 665.999v-103h-78v103h78zM137.998 665.999v-103h-78v103h78z" />
    <glyph glyph-name="divide" unicode="&#xf7;" horiz-adv-x="500" 
d="M308 145c0 -15.333 -5.49902 -28.332 -16.499 -38.999s-24.5 -16 -40.5 -16s-29.333 5.33301 -40 16s-16 24 -16 40s5.66699 29.333 17 40s24.666 16 39.999 16s28.5 -5.33301 39.5 -16s16.5 -24.334 16.5 -41.001zM308.001 434.001
c0 -13.333 -4.83398 -25.833 -14.501 -37.5s-23.5 -17.5 -41.5 -17.5c-16 0 -29.5 5.16699 -40.5 15.5s-16.5 23.166 -16.5 38.499c0 16 5.33301 29.667 16 41s24.334 17 41.001 17s30.167 -5.66699 40.5 -17s15.5 -24.666 15.5 -39.999zM500 330.001v-79h-500v79h500z" />
    <glyph glyph-name="oslash" unicode="&#xf8;" horiz-adv-x="354" 
d="M66 32l-20.999 -41.999l-31 22l31 57c-6.66699 28 -10 86.667 -10 176c0 70 1.66699 117.667 5 143s9 46 17 62c21.333 39.333 62 59 122 59c41.333 0 74.333 -11 99 -33l22 35l28 -22l-28 -45c7.33301 -15.333 12.166 -32.833 14.499 -52.5s3.5 -54.5 3.5 -104.5
c0 -94 -2.5 -156.833 -7.5 -188.5s-15.5 -55.834 -31.5 -72.501c-22.667 -23.333 -56 -35 -100 -35c-48 0 -85.667 13.667 -113 41zM234.001 325.001l-112.998 -197c0 -50 17.667 -75 53 -75c17.333 0 30.666 5.66699 39.999 17s14.666 21.833 15.999 31.5
s2.33301 22.5 3 38.5c2 60 2.33301 121.667 1 185zM119.003 197.001l112 195c-1.33301 6.66699 -2.5 11.834 -3.5 15.501s-3.33301 8.83398 -7 15.501s-9 11.667 -16 15s-15.833 5 -26.5 5c-11.333 0 -20.833 -2.33301 -28.5 -7s-13.334 -9.83398 -17.001 -15.501
s-6.66699 -14.334 -9 -26.001s-3.66602 -20.667 -3.99902 -27s-0.5 -16.5 -0.5 -30.5v-140z" />
    <glyph glyph-name="ugrave" unicode="&#xf9;" 
d="M331 500l-0.000976562 -500.001h-77v46c-29.333 -36.667 -64.666 -55 -105.999 -55c-37.333 0 -64.333 13 -81 39c-10 15.333 -16.333 33.333 -19 54s-4 54.334 -4 101.001v315h80v-328l1 -48c0 -48.667 19.333 -73 58 -73c16 0 29.167 3.5 39.5 10.5
s17.333 17.833 21 32.5s6 27 7 37s1.5 24 1.5 42v327h79zM237.999 562.999h-65l-97 108h109z" />
    <glyph glyph-name="uacute" unicode="&#xfa;" 
d="M331 500l-0.000976562 -500.001h-77v46c-29.333 -36.667 -64.666 -55 -105.999 -55c-37.333 0 -64.333 13 -81 39c-10 15.333 -16.333 33.333 -19 54s-4 54.334 -4 101.001v315h80v-328l1 -48c0 -48.667 19.333 -73 58 -73c16 0 29.167 3.5 39.5 10.5
s17.333 17.833 21 32.5s6 27 7 37s1.5 24 1.5 42v327h79zM304.999 670.999l-98 -108h-64l53 108h109z" />
    <glyph glyph-name="ucircumflex" unicode="&#xfb;" 
d="M331 500l-0.000976562 -500.001h-77v46c-29.333 -36.667 -64.666 -55 -105.999 -55c-37.333 0 -64.333 13 -81 39c-10 15.333 -16.333 33.333 -19 54s-4 54.334 -4 101.001v315h80v-328l1 -48c0 -48.667 19.333 -73 58 -73c16 0 29.167 3.5 39.5 10.5
s17.333 17.833 21 32.5s6 27 7 37s1.5 24 1.5 42v327h79zM58.999 562.999l101 110h66l98 -110h-87l-54 63l-57 -63h-67z" />
    <glyph glyph-name="udieresis" unicode="&#xfc;" 
d="M331 500l-0.000976562 -500.001h-77v46c-29.333 -36.667 -64.666 -55 -105.999 -55c-37.333 0 -64.333 13 -81 39c-10 15.333 -16.333 33.333 -19 54s-4 54.334 -4 101.001v315h80v-328l1 -48c0 -48.667 19.333 -73 58 -73c16 0 29.167 3.5 39.5 10.5
s17.333 17.833 21 32.5s6 27 7 37s1.5 24 1.5 42v327h79zM305.999 665.999v-103h-78v103h78zM150.999 665.999v-103h-78v103h78z" />
    <glyph glyph-name="yacute" unicode="&#xfd;" horiz-adv-x="333" 
d="M235 501h85.001l-86 -436c-17.333 -88 -31.333 -142 -42 -162c-13.333 -26.667 -29.833 -44.334 -49.5 -53.001s-43.167 -13 -70.5 -13h-52v69h36.5c11 0 21 1 30 3s16.667 4.83301 23 8.5s11.166 9.33398 14.499 17.001s5 17.5 5 29.5c0 14 -3.33301 34.333 -10 61
l-113 476h86l79 -403zM285.001 671l-98 -108h-64l53 108h109z" />
    <glyph glyph-name="thorn" unicode="&#xfe;" 
d="M126 41l-0.00195312 -199.998h-83v865h80v-254c8.66699 11.333 15.834 20 21.501 26s15.834 12.667 30.501 20s31 11 49 11c44 0 76 -18.667 96 -56c12.667 -24.667 19 -77.334 19 -158.001c0 -94.667 -2 -158.334 -6 -191.001c-10.667 -75.333 -48.667 -113 -114 -113
c-17.333 0 -33 3.5 -47 10.5s-23.333 13 -28 18s-10.667 12.167 -18 21.5zM254.998 261.002c0 72.667 -1.99902 117.666 -5.99902 134.999c-6.66699 32.667 -25 49 -55 49c-38 0 -60 -29.333 -66 -88c-1.33301 -15.333 -2 -58.666 -2 -129.999c0 -74 5 -121 15 -141
c11.333 -23.333 29.666 -35 54.999 -35c34 0 52.333 23 55 69c2.66699 34 4 81 4 141z" />
    <glyph glyph-name="ydieresis" unicode="&#xff;" horiz-adv-x="333" 
d="M235 501h85.001l-86 -436c-17.333 -88 -31.333 -142 -42 -162c-13.333 -26.667 -29.833 -44.334 -49.5 -53.001s-43.167 -13 -70.5 -13h-52v69h36.5c11 0 21 1 30 3s16.667 4.83301 23 8.5s11.166 9.33398 14.499 17.001s5 17.5 5 29.5c0 14 -3.33301 34.333 -10 61
l-113 476h86l79 -403zM284.001 666v-103h-78v103h78zM129.001 666v-103h-78v103h78z" />
    <glyph glyph-name="dotlessi" unicode="&#x131;" horiz-adv-x="167" 
d="M123 500v-500h-79v500h79z" />
    <glyph glyph-name="Lslash" unicode="&#x141;" horiz-adv-x="354" 
d="M50 0v250l-50 -55v88l50 55v368h89v-270l130 142v-87l-130 -143v-269h207v-79h-296z" />
    <glyph glyph-name="lslash" unicode="&#x142;" horiz-adv-x="167" 
d="M43 0v307l-43 -46v83l43 47v316h81v-227l43 46v-83l-43 -47v-396h-81z" />
    <glyph glyph-name="OE" unicode="&#x152;" horiz-adv-x="646" 
d="M625 79l0.00488281 -79.001h-255c-7.33301 0 -33.166 -1.66699 -77.499 -5s-70.833 -5 -79.5 -5c-43.333 0 -78.666 11.333 -105.999 34c-24.667 21.333 -41.334 50 -50.001 86s-13 95.333 -13 178c0 172.667 5 277.667 15 315c3.33301 12.667 8.16602 24.667 14.499 36
s15.666 23.333 27.999 36s29.166 22.834 50.499 30.501s45.666 11.5 72.999 11.5c12 0 21 -0.333008 27 -1c3.33301 -0.666992 14.666 -2.16699 33.999 -4.5s30.666 -3.5 33.999 -3.5c17.333 -1.33301 35 -2 53 -2h242v-79h-209v-210h178v-80h-178v-258h219z
M321.005 245.999v229.998c0 46.667 -1 77 -3 91c-5.33301 50 -34 75 -86 75c-53.333 0 -84 -31.333 -92 -94c-3.33301 -28 -5 -96.333 -5 -205c0 -71.333 0.666992 -121.666 2 -150.999c0.666992 -14.667 1.5 -26 2.5 -34s3.33301 -18.667 7 -32s8.66699 -23.666 15 -30.999
s15.5 -14 27.5 -20s26.333 -9 43 -9c46 0 73.667 21 83 63c4 20 6 59 6 117z" />
    <glyph glyph-name="oe" unicode="&#x153;" horiz-adv-x="542" 
d="M431 163h75.0029c-0.666992 -24 -1.5 -41.5 -2.5 -52.5s-4 -24.667 -9 -41s-12.167 -29.5 -21.5 -39.5c-22.667 -26 -56 -39 -100 -39c-39.333 0 -71.666 13.667 -96.999 41c-29.333 -27.333 -64.666 -41 -105.999 -41c-8 0 -16.333 0.666992 -25 2s-20 4.33301 -34 9
s-26.833 13 -38.5 25s-20.167 27 -25.5 45c-7.33301 25.333 -11 88 -11 188c0 20 1 51 3 93c1.33301 44.667 8.33301 78 21 100c22 37.333 61 56 117 56c35.333 0 68.333 -12.667 99 -38c29.333 25.333 60.666 38 93.999 38c49.333 0 86.666 -18 111.999 -54
c16 -24.667 24 -64.667 24 -120v-97h-193c0 -3.33301 -0.166992 -15.333 -0.5 -36s-0.5 -33 -0.5 -37c0 -42.667 3 -70 9 -82c9.33301 -19.333 26.666 -29 51.999 -29c13.333 0 24.166 2.83301 32.499 8.5s14.166 14.667 17.499 27s5.5 23.5 6.5 33.5s1.5 23.333 1.5 40z
M238.003 247c2.66699 87.333 -0.00292969 141.667 -8.00293 163c-8.66699 24 -26 36 -52 36c-36.667 0 -56 -26.333 -58 -79c-2 -42 -3 -71.667 -3 -89c0 -60.667 0.333008 -101.667 1 -123c0.666992 -14.667 1.33398 -26.5 2.00098 -35.5s2.83398 -19.333 6.50098 -31
s9.83398 -20.5 18.501 -26.5s19.667 -9 33 -9c36 0 55 27.333 57 82c2 50 3 87.333 3 112zM313 303.001l117 -0.000976562c0 45.333 -1 74.333 -3 87c-0.666992 6.66699 -2 13.334 -4 20.001s-7.66699 14.167 -17 22.5s-21.333 12.5 -36 12.5c-38 0 -57 -27 -57 -81v-61z
" />
    <glyph glyph-name="Scaron" unicode="&#x160;" horiz-adv-x="396" 
d="M27 166l-0.00292969 78.002h84c0 -54.667 0.333008 -86.334 1 -95.001c3.33301 -56 31.666 -84 84.999 -84c12.667 0 24.834 1.66699 36.501 5s23.334 12.166 35.001 26.499s17.5 33.166 17.5 56.499c0 25.333 -5 46.5 -15 63.5s-26.667 37.5 -50 61.5l-96 98
c-32 33.333 -53.5 62.5 -64.5 87.5s-16.5 54.5 -16.5 88.5c0 110 54.667 165 164 165c62 0 105 -19.333 129 -58c9.33301 -15.333 15 -32 17 -50s3 -55 3 -111h-77c-1.33301 50.667 -2.66602 79.667 -3.99902 87c-6 38 -30.333 57 -73 57c-49.333 0 -74 -28 -74 -84
c0 -24.667 4.5 -44.667 13.5 -60s27.5 -37.666 55.5 -66.999l89 -93c32 -34 54 -62.833 66 -86.5s18 -54.5 18 -92.5c0 -28.667 -4.33301 -53.667 -13 -75s-19.167 -37.833 -31.5 -49.5s-26.833 -21 -43.5 -28s-31.5 -11.5 -44.5 -13.5s-25.833 -3 -38.5 -3
c-51.333 0 -90.666 11.667 -117.999 35c-36.667 28.667 -55 75.667 -55 141zM330.997 883.002l-101 -110h-66l-98 110h87l54 -63l57 63h67z" />
    <glyph glyph-name="scaron" unicode="&#x161;" horiz-adv-x="313" 
d="M161 203l-61 54.001c-16 14 -27.833 25.333 -35.5 34s-15.167 21 -22.5 37s-11 33.667 -11 53c0 46.667 12.5 79.667 37.5 99s55.167 29 90.5 29c42.667 0 74.334 -11 95.001 -33c19.333 -20.667 29 -61.667 29 -123h-71c0 33.333 -3 55.666 -9 66.999
c-8.66699 16.667 -23.334 25 -44.001 25c-16 0 -28.833 -4.66699 -38.5 -14s-14.5 -23 -14.5 -41c0 -15.333 4.5 -28.666 13.5 -39.999s25.167 -26.666 48.5 -45.999l56 -48c14.667 -12 26 -22.167 34 -30.5s16.167 -21.5 24.5 -39.5s12.5 -37.667 12.5 -59
c0 -51.333 -18 -89 -54 -113c-22 -15.333 -52.333 -23 -91 -23c-61.333 0 -101 21.667 -119 65c-8 18.667 -12.667 57.667 -14 117h77c0 -44.667 2 -72.334 6 -83.001c9.33301 -23.333 28 -35 56 -35c16 0 29.5 5.33301 40.5 16s16.5 25.667 16.5 45
c0 18 -3.66699 32.667 -11 44s-21 25.666 -41 42.999zM289 674.001l-101 -110h-65l-98 110h87l53 -63l58 63h66z" />
    <glyph glyph-name="Ydieresis" unicode="&#x178;" horiz-adv-x="396" 
d="M241 277v-277h-91v277l-150 429h94l104 -353l105 353h93zM329 882v-106h-83v106h83zM151 882v-106h-83v106h83z" />
    <glyph glyph-name="Zcaron" unicode="&#x17d;" 
d="M353 78v-78h-331v72l232 555h-199v79h298v-67l-236 -561h236zM320 883l-101 -110h-66l-98 110h87l54 -63l57 63h67z" />
    <glyph glyph-name="zcaron" unicode="&#x17e;" horiz-adv-x="292" 
d="M281 66v-66h-272v66l188 366h-163v68h247v-68l-187 -366h187zM285 674l-101 -110h-65l-98 110h87l53 -63l58 63h66z" />
    <glyph glyph-name="florin" unicode="&#x192;" horiz-adv-x="271" 
d="M257 501l-7.99902 -60.999h-70l-41 -405c-4 -36.667 -7.83301 -64.167 -11.5 -82.5s-9.83398 -35.833 -18.501 -52.5s-20.334 -27.834 -35.001 -33.501s-34.334 -8.5 -59.001 -8.5c-13.333 0 -27.333 1.66699 -42 5l7 68c10 -2 18.667 -3 26 -3
c18 0 30.667 7.33301 38 22s13 43 17 85l42 405h-61l6 61h62l11 112c3.33301 33.333 11.833 59 25.5 77s40.5 27 80.5 27c8.66699 0 22.334 -0.666992 41.001 -2l-7 -70c-14 0.666992 -25.5 -0.5 -34.5 -3.5s-15.5 -8.5 -19.5 -16.5s-6.66699 -15.333 -8 -22
s-2.66602 -16.667 -3.99902 -30l-8 -72h71z" />
    <glyph glyph-name="circumflex" unicode="&#x2c6;" horiz-adv-x="229" 
d="M-18 563l101 110h66l98 -110h-87l-54 63l-57 -63h-67z" />
    <glyph glyph-name="caron" unicode="&#x2c7;" horiz-adv-x="229" 
d="M247 674l-101 -110h-65l-98 110h87l53 -63l58 63h66z" />
    <glyph glyph-name="breve" unicode="&#x2d8;" horiz-adv-x="229" 
d="M167 672l48.001 -0.000976562c-1.33301 -37.333 -11 -65.666 -29 -84.999c-18.667 -20.667 -42.334 -31 -71.001 -31c-18 0 -35 4.33301 -51 13c-14.667 8 -26 19 -34 33s-12.5 25.333 -13.5 34s-1.83301 20.667 -2.5 36h48c2 -38.667 19.333 -58 52 -58
c33.333 0 51 19.333 53 58z" />
    <glyph glyph-name="dotaccent" unicode="&#x2d9;" horiz-adv-x="229" 
d="M153 666v-103h-77v103h77z" />
    <glyph glyph-name="ring" unicode="&#x2da;" horiz-adv-x="229" 
d="M114 709c22 0 41 -7.83203 57 -23.499s24 -34.5 24 -56.5c0 -22.667 -8 -41.834 -24 -57.501s-35 -23.5 -57 -23.5s-40.833 8 -56.5 24s-23.5 35 -23.5 57s7.83301 40.833 23.5 56.5s34.5 23.5 56.5 23.5zM115 666.001c-10 0 -18.667 -3.49902 -26 -10.499
s-11 -15.833 -11 -26.5c0 -10 3.66699 -18.5 11 -25.5s16 -10.5 26 -10.5s18.5 3.66699 25.5 11s10.5 15.666 10.5 24.999c0 10.667 -3.5 19.5 -10.5 26.5s-15.5 10.5 -25.5 10.5z" />
    <glyph glyph-name="ogonek" unicode="&#x2db;" horiz-adv-x="229" 
d="M99 0h67c-14 -16 -24.5 -29.333 -31.5 -40s-11 -18.167 -12 -22.5s-1.5 -10.166 -1.5 -17.499c0 -1.33301 0.833008 -3.5 2.5 -6.5s5 -6.16699 10 -9.5s11.167 -5 18.5 -5c1.33301 0 5.83301 0.166992 13.5 0.5s12.167 0.5 13.5 0.5v-61
c-19.333 0 -33.5 0.166992 -42.5 0.5s-20.333 1.5 -34 3.5s-23.5 4.83301 -29.5 8.5s-11.333 9.16699 -16 16.5s-7 16.666 -7 27.999c0 26 16.333 60.667 49 104z" />
    <glyph glyph-name="tilde" unicode="&#x2dc;" horiz-adv-x="229" 
d="M205 659h35.999c-2 -33.333 -10.667 -56.666 -26 -69.999s-31.666 -20 -48.999 -20c-8.66699 0 -28.667 5.33301 -60 16c-26.667 10 -44.334 15 -53.001 15c-16.667 0 -26 -10.333 -28 -31h-36c1.33301 31.333 9.66602 54.166 24.999 68.499s32.333 21.5 51 21.5
c10.667 0 40 -8.33301 88 -25c10.667 -4 19.334 -6 26.001 -6c7.33301 0 13 2 17 6s6.33301 7.66699 7 11s1.33398 8 2.00098 14z" />
    <glyph glyph-name="hungarumlaut" unicode="&#x2dd;" horiz-adv-x="229" 
d="M125 671l-98 -108h-64l53 108h109zM266 671l-98 -108h-64l53 108h109z" />
    <glyph glyph-name="endash" unicode="&#x2013;" 
d="M354 309v-78h-333v78h333z" />
    <glyph glyph-name="emdash" unicode="&#x2014;" horiz-adv-x="437" 
d="M417 309v-78h-396v78h396z" />
    <glyph glyph-name="quoteleft" unicode="&#x2018;" horiz-adv-x="167" 
d="M126 452h-86.002v113c0 14.667 0.333008 26.667 1 36s2.5 20.5 5.5 33.5s7.33301 23.667 13 32s14.167 16.333 25.5 24s25 13.167 41 16.5v-52c-17.333 -5.33301 -28.166 -14.333 -32.499 -27s-6.16602 -32 -5.49902 -58h38v-118z" />
    <glyph glyph-name="quoteright" unicode="&#x2019;" horiz-adv-x="167" 
d="M40 707h86.002v-113c0 -14.667 -0.333008 -26.667 -1 -36s-2.5 -20.5 -5.5 -33.5s-7.33301 -23.667 -13 -32s-14.167 -16.333 -25.5 -24s-25 -13.167 -41 -16.5v52c17.333 5.33301 28.166 14.333 32.499 27s6.16602 32 5.49902 58h-38v118z" />
    <glyph glyph-name="quotesinglbase" unicode="&#x201a;" horiz-adv-x="167" 
d="M40 118h86.002v-113c0 -14.667 -0.333008 -26.667 -1 -36s-2.5 -20.5 -5.5 -33.5s-7.33301 -23.667 -13 -32s-14.167 -16.333 -25.5 -24s-25 -13.167 -41 -16.5v52c17.333 5.33301 28.166 14.333 32.499 27s6.16602 32 5.49902 58h-38v118z" />
    <glyph glyph-name="quotedblleft" unicode="&#x201c;" horiz-adv-x="313" 
d="M126 452h-85v113c0 19.333 0.666992 34.666 2 45.999s4.5 24.5 9.5 39.5s13.5 27.167 25.5 36.5s28 16 48 20v-52c-12 -3.33301 -20.833 -9.66602 -26.5 -18.999s-9 -18.5 -10 -27.5s-1.16699 -21.833 -0.5 -38.5h37v-118zM272 452h-86.002v113
c0 19.333 0.666992 34.666 2 45.999s4.5 24.5 9.5 39.5s13.667 27.167 26 36.5s28.5 16 48.5 20v-52c-17.333 -4.66699 -28.166 -13.667 -32.499 -27s-6.16602 -32.666 -5.49902 -57.999h38v-118z" />
    <glyph glyph-name="quotedblright" unicode="&#x201d;" horiz-adv-x="313" 
d="M186 706h86.002v-113c0 -19.333 -0.666992 -34.666 -2 -45.999s-4.5 -24.5 -9.5 -39.5s-13.667 -27.167 -26 -36.5s-28.5 -16 -48.5 -20v52c17.333 4.66699 28.166 13.667 32.499 27s6.16602 32.666 5.49902 57.999h-38v118zM40.002 706l86.002 0.00195312v-113
c0 -14.667 -0.333008 -26.834 -1 -36.501s-2.5 -21 -5.5 -34s-7.33301 -23.5 -13 -31.5s-14.167 -15.833 -25.5 -23.5s-25 -13.167 -41 -16.5v52c17.333 4.66699 28.166 13.667 32.499 27s6.16602 32.666 5.49902 57.999h-38v118z" />
    <glyph glyph-name="quotedblbase" unicode="&#x201e;" horiz-adv-x="313" 
d="M186 118l86.002 0.00292969v-113c0 -14.667 -0.333008 -26.834 -1 -36.501s-2.5 -21 -5.5 -34s-7.33301 -23.5 -13 -31.5s-14.167 -15.833 -25.5 -23.5s-25 -13.167 -41 -16.5v51c17.333 5.33301 28.166 14.666 32.499 27.999s6.16602 32.666 5.49902 57.999h-38v118z
M40.002 118.003l86.002 0.00292969v-113c0 -14.667 -0.333008 -26.834 -1 -36.501s-2.5 -21 -5.5 -34s-7.33301 -23.5 -13 -31.5s-14.167 -15.833 -25.5 -23.5s-25 -13.167 -41 -16.5v51c17.333 5.33301 28.166 14.666 32.499 27.999s6.16602 32.666 5.49902 57.999h-38v118
z" />
    <glyph glyph-name="dagger" unicode="&#x2020;" 
d="M229 394v-507h-79v507h-126v72h126v240h79v-240h123v-72h-123z" />
    <glyph glyph-name="daggerdbl" unicode="&#x2021;" 
d="M227 119v-232h-77v232h-127v73h127v235h-127v73h127v206h77v-206h124v-73h-124v-235h124v-73h-124z" />
    <glyph glyph-name="bullet" unicode="&#x2022;" horiz-adv-x="333" 
d="M297 353c0 -39.333 -12.334 -70.833 -37.001 -94.5s-54.667 -35.5 -90 -35.5c-38.667 0 -70.5 12.667 -95.5 38s-37.5 56 -37.5 92c0 35.333 12.667 65.833 38 91.5s56.333 38.5 93 38.5s67.334 -12.167 92.001 -36.5s37 -55.5 37 -93.5z" />
    <glyph glyph-name="ellipsis" unicode="&#x2026;" horiz-adv-x="1000" 
d="M209 118v-118h-85v118h85zM542 118v-118h-85v118h85zM875 118v-118h-85v118h85z" />
    <glyph glyph-name="perthousand" unicode="&#x2030;" horiz-adv-x="875" 
d="M509 706l-344 -706h-49l348 706h45zM229 487c0 -73.333 -1.00098 -119.998 -3.00098 -139.998c-6 -58 -39 -87 -99 -87c-22 0 -40.333 3.16699 -55 9.5s-25.167 15.333 -31.5 27s-10.333 20.667 -12 27s-3.16699 14.5 -4.5 24.5c-1.33301 14 -2 90.333 -2 229
c0 13.333 0.166992 24.166 0.5 32.499s2.33301 19.833 6 34.5s8.83398 26.167 15.501 34.5s17 16 31 23s30.667 10.5 50 10.5c58 0 91.667 -28.333 101 -85c2 -12.667 3 -59.334 3 -140.001zM160.999 484.002l-0.000976562 87.999c0 16.667 -0.166992 28.5 -0.5 35.5
s-1.66602 14.5 -3.99902 22.5s-6 13.333 -11 16s-11.833 4 -20.5 4c-10.667 0 -18.834 -3 -24.501 -9s-9 -12.167 -10 -18.5s-1.5 -14.833 -1.5 -25.5c-0.666992 -23.333 -1 -76 -1 -158c0 -54 1.66699 -87.167 5 -99.5s13.666 -18.5 30.999 -18.5c10 0 17.833 2 23.5 6
s8.83398 7.83301 9.50098 11.5s1.33398 8.83398 2.00098 15.501c1.33301 14 2 57.333 2 130zM603.998 222.001c0 -73.333 -1.00098 -119.998 -3.00098 -139.998c-6 -58 -39 -87 -99 -87c-22 0 -40.333 3.16699 -55 9.5s-25.167 15.333 -31.5 27s-10.333 20.667 -12 27
s-3.16699 14.5 -4.5 24.5c-1.33301 14 -2 90.333 -2 229c0 13.333 0.166992 24.166 0.5 32.499s2.33301 19.833 6 34.5s8.83398 26.167 15.501 34.5s17 16 31 23s30.667 10.5 50 10.5c58 0 91.667 -28.333 101 -85c2 -12.667 3 -59.334 3 -140.001zM535.997 219.003
l-0.000976562 87.999c0 16.667 -0.166992 28.5 -0.5 35.5s-1.66602 14.5 -3.99902 22.5s-6 13.333 -11 16s-11.833 4 -20.5 4c-10.667 0 -18.834 -3 -24.501 -9s-9 -12.167 -10 -18.5s-1.5 -14.833 -1.5 -25.5c-0.666992 -23.333 -1 -76 -1 -158
c0 -53.333 1.66699 -86.333 5 -99s13.666 -19 30.999 -19c10 0 17.833 2 23.5 6s8.83398 7.83301 9.50098 11.5s1.33398 8.83398 2.00098 15.501c1.33301 14 2 57.333 2 130zM853.996 222.002c0 -73.333 -1.00098 -119.998 -3.00098 -139.998c-6 -58 -39 -87 -99 -87
c-22 0 -40.333 3.16699 -55 9.5s-25.167 15.333 -31.5 27s-10.333 20.667 -12 27s-3.16699 14.5 -4.5 24.5c-1.33301 14 -2 90.333 -2 229c0 13.333 0.166992 24.166 0.5 32.499s2.33301 19.833 6 34.5s8.83398 26.167 15.501 34.5s17 16 31 23s30.667 10.5 50 10.5
c58 0 91.667 -28.333 101 -85c2 -12.667 3 -59.334 3 -140.001zM785.995 219.004l-0.000976562 87.999c0 16.667 -0.166992 28.5 -0.5 35.5s-1.66602 14.5 -3.99902 22.5s-6 13.333 -11 16s-11.833 4 -20.5 4c-10.667 0 -18.834 -3 -24.501 -9s-9 -12.167 -10 -18.5
s-1.5 -14.833 -1.5 -25.5c-0.666992 -23.333 -1 -76 -1 -158c0 -53.333 1.66699 -86.333 5 -99s13.666 -19 30.999 -19c10 0 17.833 2 23.5 6s8.83398 7.83301 9.50098 11.5s1.33398 8.83398 2.00098 15.501c1.33301 14 2 57.333 2 130z" />
    <glyph glyph-name="guilsinglleft" unicode="&#x2039;" horiz-adv-x="187" 
d="M160 198v-118l-140 158v86l140 156v-116l-74 -83z" />
    <glyph glyph-name="guilsinglright" unicode="&#x203a;" horiz-adv-x="187" 
d="M168 238l-140 -158v118l74 83l-74 83v116l140 -156v-86z" />
    <glyph glyph-name="fraction" unicode="&#x2044;" horiz-adv-x="125" 
d="M259 706l-344 -706h-49l347 706h46z" />
    <glyph glyph-name="fraction" unicode="&#x2215;" horiz-adv-x="125" 
d="M259 706l-344 -706h-49l347 706h46z" />
    <glyph glyph-name="Euro" unicode="&#x20ac;" 
d="M344 689l0.00195312 -82c-18 19.333 -46 29 -84 29c-64 0 -98.667 -59 -104 -177h160l-16 -68h-149v-36v-36h130l-17 -68h-108c6 -120.667 40.333 -181 103 -181c37.333 0 65.666 9.66699 84.999 29v-83c-18.667 -16 -51.667 -24 -99 -24
c-100.667 0 -157.334 86.333 -170.001 259h-57l17 68h34c-0.666992 6 -1 18 -1 36c0 16 0.333008 28 1 36h-51l17 68h38c13.333 170.667 71 256 173 256c45.333 0 78 -8.66699 98 -26z" />
    <glyph glyph-name="trademark" unicode="&#x2122;" horiz-adv-x="687" 
d="M636 706v-332h-57l2 205l3 68l-16 -56l-68 -217h-52l-84 272l4 -67l2 -205h-56v332h79l83 -262l81 262h79zM181 657v-283h-58v283h-107v49h270v-49h-105z" />
    <glyph glyph-name="minus" unicode="&#x2212;" horiz-adv-x="500" 
d="M500 333v-81h-500v81h500z" />
    <glyph glyph-name="fi" unicode="&#xfb01;" horiz-adv-x="396" 
d="M143 440l-0.000976562 -440h-79v440h-59v61h59v53c0 18 0.333008 32 1 42s3 23.333 7 40s9.83301 29.5 17.5 38.5s19.334 17 35.001 24s34.834 10.5 57.501 10.5c13.333 0 27.333 -2 42 -6v-69c-12 4 -22.667 6 -32 6c-12 0 -21.5 -2 -28.5 -6
s-11.833 -10.833 -14.5 -20.5s-4.33398 -18.5 -5.00098 -26.5s-1 -20.333 -1 -37v-49h81v-61h-81zM351.999 501v-501h-79v501h79zM351.999 691v-103h-79v103h79z" />
    <glyph glyph-name="fl" unicode="&#xfb02;" horiz-adv-x="396" 
d="M143 440l-0.000976562 -440h-79v440h-59v61h59v53c0 18 0.333008 32 1 42s3 23.333 7 40s9.83301 29.5 17.5 38.5s19.334 17 35.001 24s34.834 10.5 57.501 10.5c13.333 0 27.333 -2 42 -6v-69c-12 4 -22.667 6 -32 6c-12 0 -21.5 -2 -28.5 -6
s-11.833 -10.833 -14.5 -20.5s-4.33398 -18.5 -5.00098 -26.5s-1 -20.333 -1 -37v-49h81v-61h-81zM352.999 706l-1 -706h-80v706h81z" />
    <glyph glyph-name=".null" horiz-adv-x="0" 
 />
    <glyph glyph-name="nonmarkingreturn" horiz-adv-x="333" 
 />
    </font>
</defs>
</svg>
